  0
SECTION
  2
HEADER
  9
$ACADVER
  1
AC1024
  9
$ACADMAINTVER
 70
     6
  9
$DWGCODEPAGE
  3
ANSI_932
  9
$INSBASE
 10
0.0
 20
0.0
 30
0.0
  9
$EXTMIN
 10
-711.0
 20
-707.5
 30
0.0
  9
$EXTMAX
 10
670.5
 20
576.5
 30
0.0
  9
$LIMMIN
 10
-210.0
 20
-148.5
  9
$LIMMAX
 10
210.0
 20
148.5
  9
$ORTHOMODE
 70
     0
  9
$REGENMODE
 70
     1
  9
$FILLMODE
 70
     1
  9
$QTEXTMODE
 70
     0
  9
$MIRRTEXT
 70
     1
  9
$LTSCALE
 40
0.25
  9
$ATTMODE
 70
     1
  9
$TEXTSIZE
 40
0.2
  9
$TRACEWID
 40
0.05
  9
$TEXTSTYLE
  7
Standard
  9
$CLAYER
  8
0
  9
$CELTYPE
  6
ByLayer
  9
$CECOLOR
 62
   256
  9
$CELTSCALE
 40
1.0
  9
$DISPSILH
 70
     0
  9
$DIMSCALE
 40
1.0
  9
$DIMASZ
 40
3.000001907348633
  9
$DIMEXO
 40
1.0
  9
$DIMDLI
 40
10.0
  9
$DIMRND
 40
0.0
  9
$DIMDLE
 40
0.0
  9
$DIMEXE
 40
1.0
  9
$DIMTP
 40
0.0
  9
$DIMTM
 40
0.0
  9
$DIMTXT
 40
4.5
  9
$DIMCEN
 40
0.0
  9
$DIMTSZ
 40
0.0
  9
$DIMTOL
 70
     0
  9
$DIMLIM
 70
     0
  9
$DIMTIH
 70
     0
  9
$DIMTOH
 70
     0
  9
$DIMSE1
 70
     0
  9
$DIMSE2
 70
     0
  9
$DIMTAD
 70
     1
  9
$DIMZIN
 70
     8
  9
$DIMBLK
  1

  9
$DIMASO
 70
     1
  9
$DIMSHO
 70
     1
  9
$DIMPOST
  1

  9
$DIMAPOST
  1

  9
$DIMALT
 70
     0
  9
$DIMALTD
 70
     2
  9
$DIMALTF
 40
0.0393700787401575
  9
$DIMLFAC
 40
1.0
  9
$DIMTOFL
 70
     0
  9
$DIMTVP
 40
0.0
  9
$DIMTIX
 70
     0
  9
$DIMSOXD
 70
     0
  9
$DIMSAH
 70
     0
  9
$DIMBLK1
  1

  9
$DIMBLK2
  1

  9
$DIMSTYLE
  2
Standard
  9
$DIMCLRD
 70
     0
  9
$DIMCLRE
 70
     0
  9
$DIMCLRT
 70
     0
  9
$DIMTFAC
 40
0.65
  9
$DIMGAP
 40
0.09
  9
$DIMJUST
 70
     0
  9
$DIMSD1
 70
     0
  9
$DIMSD2
 70
     0
  9
$DIMTOLJ
 70
     0
  9
$DIMTZIN
 70
     0
  9
$DIMALTZ
 70
     0
  9
$DIMALTTZ
 70
     0
  9
$DIMUPT
 70
     0
  9
$DIMDEC
 70
     2
  9
$DIMTDEC
 70
     2
  9
$DIMALTU
 70
     2
  9
$DIMALTTD
 70
     2
  9
$DIMTXSTY
  7
Standard
  9
$DIMAUNIT
 70
     0
  9
$DIMADEC
 70
     2
  9
$DIMALTRND
 40
0.0
  9
$DIMAZIN
 70
     2
  9
$DIMDSEP
 70
    46
  9
$DIMATFIT
 70
     3
  9
$DIMFRAC
 70
     0
  9
$DIMLDRBLK
  1

  9
$DIMLUNIT
 70
     2
  9
$DIMLWD
 70
    -2
  9
$DIMLWE
 70
    -2
  9
$DIMTMOVE
 70
     0
  9
$DIMFXL
 40
1.0
  9
$DIMFXLON
 70
     0
  9
$DIMJOGANG
 40
0.7853981633974483
  9
$DIMTFILL
 70
     0
  9
$DIMTFILLCLR
 70
     0
  9
$DIMARCSYM
 70
     1
  9
$DIMLTYPE
  6

  9
$DIMLTEX1
  6

  9
$DIMLTEX2
  6

  9
$DIMTXTDIRECTION
 70
     0
  9
$LUNITS
 70
     2
  9
$LUPREC
 70
     4
  9
$SKETCHINC
 40
0.1
  9
$FILLETRAD
 40
0.5
  9
$AUNITS
 70
     0
  9
$AUPREC
 70
     0
  9
$MENU
  1
.
  9
$ELEVATION
 40
0.0
  9
$PELEVATION
 40
0.0
  9
$THICKNESS
 40
0.0
  9
$LIMCHECK
 70
     0
  9
$CHAMFERA
 40
0.0
  9
$CHAMFERB
 40
0.0
  9
$CHAMFERC
 40
0.0
  9
$CHAMFERD
 40
0.0
  9
$SKPOLY
 70
     0
  9
$TDCREATE
 40
2460947.619234386
  9
$TDUCREATE
 40
2460947.244234386
  9
$TDUPDATE
 40
2460947.619234456
  9
$TDUUPDATE
 40
2460947.244234456
  9
$TDINDWG
 40
0.0000000116
  9
$TDUSRTIMER
 40
0.0000000116
  9
$USRTIMER
 70
     1
  9
$ANGBASE
 50
0.0
  9
$ANGDIR
 70
     0
  9
$PDMODE
 70
     0
  9
$PDSIZE
 40
1.0
  9
$PLINEWID
 40
0.0
  9
$SPLFRAME
 70
     0
  9
$SPLINETYPE
 70
     6
  9
$SPLINESEGS
 70
     8
  9
$HANDSEED
  5
489
  9
$SURFTAB1
 70
     6
  9
$SURFTAB2
 70
     6
  9
$SURFTYPE
 70
     6
  9
$SURFU
 70
     6
  9
$SURFV
 70
     6
  9
$UCSBASE
  2

  9
$UCSNAME
  2

  9
$UCSORG
 10
0.0
 20
0.0
 30
0.0
  9
$UCSXDIR
 10
1.0
 20
0.0
 30
0.0
  9
$UCSYDIR
 10
0.0
 20
1.0
 30
0.0
  9
$UCSORTHOREF
  2

  9
$UCSORTHOVIEW
 70
     0
  9
$UCSORGTOP
 10
0.0
 20
0.0
 30
0.0
  9
$UCSORGBOTTOM
 10
0.0
 20
0.0
 30
0.0
  9
$UCSORGLEFT
 10
0.0
 20
0.0
 30
0.0
  9
$UCSORGRIGHT
 10
0.0
 20
0.0
 30
0.0
  9
$UCSORGFRONT
 10
0.0
 20
0.0
 30
0.0
  9
$UCSORGBACK
 10
0.0
 20
0.0
 30
0.0
  9
$PUCSBASE
  2

  9
$PUCSNAME
  2

  9
$PUCSORG
 10
0.0
 20
0.0
 30
0.0
  9
$PUCSXDIR
 10
1.0
 20
0.0
 30
0.0
  9
$PUCSYDIR
 10
0.0
 20
1.0
 30
0.0
  9
$PUCSORTHOREF
  2

  9
$PUCSORTHOVIEW
 70
     0
  9
$PUCSORGTOP
 10
0.0
 20
0.0
 30
0.0
  9
$PUCSORGBOTTOM
 10
0.0
 20
0.0
 30
0.0
  9
$PUCSORGLEFT
 10
0.0
 20
0.0
 30
0.0
  9
$PUCSORGRIGHT
 10
0.0
 20
0.0
 30
0.0
  9
$PUCSORGFRONT
 10
0.0
 20
0.0
 30
0.0
  9
$PUCSORGBACK
 10
0.0
 20
0.0
 30
0.0
  9
$USERI1
 70
     0
  9
$USERI2
 70
     0
  9
$USERI3
 70
     0
  9
$USERI4
 70
     0
  9
$USERI5
 70
     0
  9
$USERR1
 40
0.0
  9
$USERR2
 40
0.0
  9
$USERR3
 40
0.0
  9
$USERR4
 40
0.0
  9
$USERR5
 40
0.0
  9
$WORLDVIEW
 70
     1
  9
$SHADEDGE
 70
     3
  9
$SHADEDIF
 70
    70
  9
$TILEMODE
 70
     1
  9
$MAXACTVP
 70
    64
  9
$PINSBASE
 10
0.0
 20
0.0
 30
0.0
  9
$PLIMCHECK
 70
     0
  9
$PEXTMIN
 10
1.000000000000000E+20
 20
1.000000000000000E+20
 30
1.000000000000000E+20
  9
$PEXTMAX
 10
-1.000000000000000E+20
 20
-1.000000000000000E+20
 30
-1.000000000000000E+20
  9
$PLIMMIN
 10
0.0
 20
0.0
  9
$PLIMMAX
 10
12.0
 20
9.0
  9
$UNITMODE
 70
     0
  9
$VISRETAIN
 70
     0
  9
$PLINEGEN
 70
     1
  9
$PSLTSCALE
 70
     0
  9
$TREEDEPTH
 70
  3020
  9
$CMLSTYLE
  2
Standard
  9
$CMLJUST
 70
     0
  9
$CMLSCALE
 40
1.0
  9
$PROXYGRAPHICS
 70
     0
  9
$MEASUREMENT
 70
     1
  9
$CELWEIGHT
370
    -1
  9
$ENDCAPS
280
     0
  9
$JOINSTYLE
280
     0
  9
$LWDISPLAY
290
     1
  9
$INSUNITS
 70
     4
  9
$HYPERLINKBASE
  1

  9
$STYLESHEET
  1

  9
$XEDIT
290
     1
  9
$CEPSNTYPE
380
     0
  9
$PSTYLEMODE
290
     1
  9
$FINGERPRINTGUID
  2
{2cb508b7-2c70-4031-bfff-82aed0225601}
  9
$VERSIONGUID
  2
{FAEB1C32-E019-11D5-929B-00C0DF256EC4}
  9
$EXTNAMES
290
     1
  9
$PSVPSCALE
 40
0.0
  9
$OLESTARTUP
290
     0
  9
$SORTENTS
280
   127
  9
$INDEXCTL
280
     0
  9
$HIDETEXT
280
     1
  9
$XCLIPFRAME
280
     2
  9
$HALOGAP
280
     0
  9
$OBSCOLOR
 70
   257
  9
$OBSLTYPE
280
     0
  9
$INTERSECTIONDISPLAY
280
     0
  9
$INTERSECTIONCOLOR
 70
   257
  9
$DIMASSOC
280
     2
  9
$PROJECTNAME
  1

  9
$CAMERADISPLAY
290
     0
  9
$LENSLENGTH
 40
50.0
  9
$CAMERAHEIGHT
 40
0.0
  9
$STEPSPERSEC
 40
2.0
  9
$STEPSIZE
 40
6.0
  9
$3DDWFPREC
 40
2.0
  9
$PSOLWIDTH
 40
0.25
  9
$PSOLHEIGHT
 40
4.0
  9
$LOFTANG1
 40
1.570796326794897
  9
$LOFTANG2
 40
1.570796326794897
  9
$LOFTMAG1
 40
0.0
  9
$LOFTMAG2
 40
0.0
  9
$LOFTPARAM
 70
     7
  9
$LOFTNORMALS
280
     1
  9
$LATITUDE
 40
37.795
  9
$LONGITUDE
 40
-122.394
  9
$NORTHDIRECTION
 40
0.0
  9
$TIMEZONE
 70
 -8000
  9
$LIGHTGLYPHDISPLAY
280
     1
  9
$TILEMODELIGHTSYNCH
280
     1
  9
$CMATERIAL
347
44
  9
$SOLIDHIST
280
     0
  9
$SHOWHIST
280
     1
  9
$DWFFRAME
280
     2
  9
$DGNFRAME
280
     2
  9
$REALWORLDSCALE
290
     1
  9
$INTERFERECOLOR
 62
   256
  9
$CSHADOW
280
     0
  9
$SHADOWPLANELOCATION
 40
0.0
  0
ENDSEC
  0
SECTION
  2
CLASSES
  0
CLASS
  1
ACDBDICTIONARYWDFLT
  2
AcDbDictionaryWithDefault
  3
ObjectDBX Classes
 90
        0
 91
        3
280
     0
281
     0
  0
CLASS
  1
VISUALSTYLE
  2
AcDbVisualStyle
  3
ObjectDBX Classes
 90
     4095
 91
        3
280
     0
281
     0
  0
CLASS
  1
MATERIAL
  2
AcDbMaterial
  3
ObjectDBX Classes
 90
     1153
 91
        3
280
     0
281
     0
  0
CLASS
  1
SCALE
  2
AcDbScale
  3
ObjectDBX Classes
 90
     1153
 91
        3
280
     0
281
     0
  0
CLASS
  1
TABLESTYLE
  2
AcDbTableStyle
  3
ObjectDBX Classes
 90
     4095
 91
        3
280
     0
281
     0
  0
CLASS
  1
MLEADERSTYLE
  2
AcDbMLeaderStyle
  3
ACDB_MLEADERSTYLE_CLASS
 90
     4095
 91
        3
280
     0
281
     0
  0
CLASS
  1
SUN
  2
AcDbSun
  3
SCENEOE
 90
     1153
 91
        3
280
     0
281
     0
  0
CLASS
  1
DICTIONARYVAR
  2
AcDbDictionaryVar
  3
ObjectDBX Classes
 90
        0
 91
        3
280
     0
281
     0
  0
CLASS
  1
CELLSTYLEMAP
  2
AcDbCellStyleMap
  3
ObjectDBX Classes
 90
     1152
 91
        3
280
     0
281
     0
  0
ENDSEC
  0
SECTION
  2
TABLES
  0
TABLE
  2
VPORT
  5
8
330
0
100
AcDbSymbolTable
 70
     1
  0
VPORT
  5
29
330
8
100
AcDbSymbolTableRecord
100
AcDbViewportTableRecord
  2
*Active
 70
     0
 10
0.0
 20
0.0
 11
1.0
 21
1.0
 12
-20.0
 22
-65.25
 13
0.0
 23
0.0
 14
0.5
 24
0.5
 15
0.5
 25
0.5
 16
0.0
 26
0.0
 36
1.0
 17
0.0
 27
0.0
 37
0.0
 40
436.05
 41
1.076023391812865
 42
50.0
 43
0.0
 44
0.0
 50
0.0
 51
0.0
 71
     0
 72
  1000
 73
     1
 74
     1
 75
     0
 76
     0
 77
     0
 78
     0
281
     0
 65
     1
110
0.0
120
0.0
130
0.0
111
1.0
121
0.0
131
0.0
112
0.0
122
1.0
132
0.0
 79
     0
146
0.0
348
2F
 60
     3
 61
     5
292
     1
282
     1
141
0.0
142
0.0
 63
   250
361
6D
  0
ENDTAB
  0
TABLE
  2
LTYPE
  5
5
330
0
100
AcDbSymbolTable
 70
    67
  0
LTYPE
  5
14
330
5
100
AcDbSymbolTableRecord
100
AcDbLinetypeTableRecord
  2
ByBlock
 70
     0
  3

 72
    65
 73
     0
 40
0.0
  0
LTYPE
  5
15
330
5
100
AcDbSymbolTableRecord
100
AcDbLinetypeTableRecord
  2
ByLayer
 70
     0
  3

 72
    65
 73
     0
 40
0.0
  0
LTYPE
  5
16
330
5
100
AcDbSymbolTableRecord
100
AcDbLinetypeTableRecord
  2
Continuous
 70
     0
  3
Solid line
 72
    65
 73
     0
 40
0.0
  0
LTYPE
  5
6F
330
5
100
AcDbSymbolTableRecord
100
AcDbLinetypeTableRecord
  2
HIDDENX2
 70
     0
  3
Hidden (2x) ____ ____ ____ ____ ____ ____ ____ 
 72
    65
 73
     2
 40
19.05
 49
12.7
 74
     0
 49
-6.35
 74
     0
  0
LTYPE
  5
70
330
5
100
AcDbSymbolTableRecord
100
AcDbLinetypeTableRecord
  2
HIDDEN
 70
     0
  3
Hidden __ __ __ __ __ __ __ __ __ __ __ __ __ __
 72
    65
 73
     2
 40
9.524999999999999
 49
6.35
 74
     0
 49
-3.175
 74
     0
  0
LTYPE
  5
71
330
5
100
AcDbSymbolTableRecord
100
AcDbLinetypeTableRecord
  2
HIDDEN2
 70
     0
  3
Hidden (.5x) _ _ _ _ _ _ _ _ _ _ _ _ _ _ _ _ _ 
 72
    65
 73
     2
 40
4.762499999999999
 49
3.175
 74
     0
 49
-1.5875
 74
     0
  0
LTYPE
  5
72
330
5
100
AcDbSymbolTableRecord
100
AcDbLinetypeTableRecord
  2
DASHED
 70
     0
  3
Dashed __ __ __ __ __ __ __ __ __ __ __ __ __ _
 72
    65
 73
     2
 40
19.05
 49
12.7
 74
     0
 49
-6.35
 74
     0
  0
LTYPE
  5
73
330
5
100
AcDbSymbolTableRecord
100
AcDbLinetypeTableRecord
  2
DASHED2
 70
     0
  3
Dashed (.5x) _ _ _ _ _ _ _ _ _ _ _ _ _ _ _ _ _ 
 72
    65
 73
     2
 40
9.524999999999999
 49
6.35
 74
     0
 49
-3.175
 74
     0
  0
LTYPE
  5
74
330
5
100
AcDbSymbolTableRecord
100
AcDbLinetypeTableRecord
  2
DASHEDX2
 70
     0
  3
Dashed (2x) ____  ____  ____  ____  ____  ___
 72
    65
 73
     2
 40
38.09999999999999
 49
25.4
 74
     0
 49
-12.7
 74
     0
  0
LTYPE
  5
75
330
5
100
AcDbSymbolTableRecord
100
AcDbLinetypeTableRecord
  2
DOTX2
 70
     0
  3
Dot (2x) .  .  .  .  .  .  .  .  .  .  .  .  .  .
 72
    65
 73
     2
 40
12.7
 49
0.0
 74
     0
 49
-12.7
 74
     0
  0
LTYPE
  5
76
330
5
100
AcDbSymbolTableRecord
100
AcDbLinetypeTableRecord
  2
DOT
 70
     0
  3
Dot . . . . . . . . . . . . . . . . . . . . . . . .
 72
    65
 73
     2
 40
6.35
 49
0.0
 74
     0
 49
-6.35
 74
     0
  0
LTYPE
  5
77
330
5
100
AcDbSymbolTableRecord
100
AcDbLinetypeTableRecord
  2
DOT2
 70
     0
  3
Dot (.5x) ........................................
 72
    65
 73
     2
 40
3.175
 49
0.0
 74
     0
 49
-3.175
 74
     0
  0
LTYPE
  5
78
330
5
100
AcDbSymbolTableRecord
100
AcDbLinetypeTableRecord
  2
CENTERX2
 70
     0
  3
Center (2x) ________  __  ________  __  _____
 72
    65
 73
     4
 40
101.6
 49
63.5
 74
     0
 49
-12.7
 74
     0
 49
12.7
 74
     0
 49
-12.7
 74
     0
  0
LTYPE
  5
79
330
5
100
AcDbSymbolTableRecord
100
AcDbLinetypeTableRecord
  2
CENTER
 70
     0
  3
Center ____ _ ____ _ ____ _ ____ _ ____ _ ____
 72
    65
 73
     4
 40
50.8
 49
31.75
 74
     0
 49
-6.35
 74
     0
 49
6.35
 74
     0
 49
-6.35
 74
     0
  0
LTYPE
  5
7A
330
5
100
AcDbSymbolTableRecord
100
AcDbLinetypeTableRecord
  2
CENTER2
 70
     0
  3
Center (.5x) ___ _ ___ _ ___ _ ___ _ ___ _ ___
 72
    65
 73
     4
 40
28.575
 49
19.05
 74
     0
 49
-3.175
 74
     0
 49
3.175
 74
     0
 49
-3.175
 74
     0
  0
LTYPE
  5
7B
330
5
100
AcDbSymbolTableRecord
100
AcDbLinetypeTableRecord
  2
DASHDOTX2
 70
     0
  3
Dash dot (2x) ____  .  ____  .  ____  .  ___
 72
    65
 73
     4
 40
50.8
 49
25.4
 74
     0
 49
-12.7
 74
     0
 49
0.0
 74
     0
 49
-12.7
 74
     0
  0
LTYPE
  5
7C
330
5
100
AcDbSymbolTableRecord
100
AcDbLinetypeTableRecord
  2
DASHDOT
 70
     0
  3
Dash dot __ . __ . __ . __ . __ . __ . __ . __
 72
    65
 73
     4
 40
25.4
 49
12.7
 74
     0
 49
-6.35
 74
     0
 49
0.0
 74
     0
 49
-6.35
 74
     0
  0
LTYPE
  5
7D
330
5
100
AcDbSymbolTableRecord
100
AcDbLinetypeTableRecord
  2
DASHDOT2
 70
     0
  3
Dash dot (.5x) _._._._._._._._._._._._._._._.
 72
    65
 73
     4
 40
12.7
 49
6.35
 74
     0
 49
-3.175
 74
     0
 49
0.0
 74
     0
 49
-3.175
 74
     0
  0
LTYPE
  5
7E
330
5
100
AcDbSymbolTableRecord
100
AcDbLinetypeTableRecord
  2
DIVIDEX2
 70
     0
  3
Divide (2x) ________  .  .  ________  .  .  _
 72
    65
 73
     6
 40
63.5
 49
25.4
 74
     0
 49
-12.7
 74
     0
 49
0.0
 74
     0
 49
-12.7
 74
     0
 49
0.0
 74
     0
 49
-12.7
 74
     0
  0
LTYPE
  5
7F
330
5
100
AcDbSymbolTableRecord
100
AcDbLinetypeTableRecord
  2
DIVIDE
 70
     0
  3
Divide ____ . . ____ . . ____ . . ____ . . ____
 72
    65
 73
     6
 40
31.75
 49
12.7
 74
     0
 49
-6.35
 74
     0
 49
0.0
 74
     0
 49
-6.35
 74
     0
 49
0.0
 74
     0
 49
-6.35
 74
     0
  0
LTYPE
  5
80
330
5
100
AcDbSymbolTableRecord
100
AcDbLinetypeTableRecord
  2
DIVIDE2
 70
     0
  3
Divide (.5x) __..__..__..__..__..__..__..__.._
 72
    65
 73
     6
 40
15.875
 49
6.35
 74
     0
 49
-3.175
 74
     0
 49
0.0
 74
     0
 49
-3.175
 74
     0
 49
0.0
 74
     0
 49
-3.175
 74
     0
  0
LTYPE
  5
81
330
5
100
AcDbSymbolTableRecord
100
AcDbLinetypeTableRecord
  2
BORDERX2
 70
     0
  3
Border (2x) ____  ____  .  ____  ____  .  ___
 72
    65
 73
     6
 40
88.89999999999999
 49
25.4
 74
     0
 49
-12.7
 74
     0
 49
25.4
 74
     0
 49
-12.7
 74
     0
 49
0.0
 74
     0
 49
-12.7
 74
     0
  0
LTYPE
  5
82
330
5
100
AcDbSymbolTableRecord
100
AcDbLinetypeTableRecord
  2
BORDER
 70
     0
  3
Border __ __ . __ __ . __ __ . __ __ . __ __ .
 72
    65
 73
     6
 40
44.45
 49
12.7
 74
     0
 49
-6.35
 74
     0
 49
12.7
 74
     0
 49
-6.35
 74
     0
 49
0.0
 74
     0
 49
-6.35
 74
     0
  0
LTYPE
  5
83
330
5
100
AcDbSymbolTableRecord
100
AcDbLinetypeTableRecord
  2
BORDER2
 70
     0
  3
Border (.5x) __.__.__.__.__.__.__.__.__.__.__.
 72
    65
 73
     6
 40
22.225
 49
6.35
 74
     0
 49
-3.175
 74
     0
 49
6.35
 74
     0
 49
-3.175
 74
     0
 49
0.0
 74
     0
 49
-3.175
 74
     0
  0
LTYPE
  5
84
330
5
100
AcDbSymbolTableRecord
100
AcDbLinetypeTableRecord
  2
PHANTOMX2
 70
     0
  3
Phantom (2x) ____________    ____    ____   _
 72
    65
 73
     6
 40
127.0
 49
63.5
 74
     0
 49
-12.7
 74
     0
 49
12.7
 74
     0
 49
-12.7
 74
     0
 49
12.7
 74
     0
 49
-12.7
 74
     0
  0
LTYPE
  5
85
330
5
100
AcDbSymbolTableRecord
100
AcDbLinetypeTableRecord
  2
PHANTOM
 70
     0
  3
Phantom ______  __  __  ______  __  __  ______ 
 72
    65
 73
     6
 40
63.5
 49
31.75
 74
     0
 49
-6.35
 74
     0
 49
6.35
 74
     0
 49
-6.35
 74
     0
 49
6.35
 74
     0
 49
-6.35
 74
     0
  0
LTYPE
  5
86
330
5
100
AcDbSymbolTableRecord
100
AcDbLinetypeTableRecord
  2
PHANTOM2
 70
     0
  3
Phantom (.5x) ___ _ _ ___ _ _ ___ _ _ ___ _ _
 72
    65
 73
     6
 40
31.75
 49
15.875
 74
     0
 49
-3.175
 74
     0
 49
3.175
 74
     0
 49
-3.175
 74
     0
 49
3.175
 74
     0
 49
-3.175
 74
     0
  0
LTYPE
  5
87
330
5
100
AcDbSymbolTableRecord
100
AcDbLinetypeTableRecord
  2
ACAD_ISO06W100
 70
     0
  3
ISO long-dash triple-dot ____ ... ____ ... ____
 72
    65
 73
     8
 40
36.0
 49
24.0
 74
     0
 49
-3.0
 74
     0
 49
0.0
 74
     0
 49
-3.0
 74
     0
 49
0.0
 74
     0
 49
-3.0
 74
     0
 49
0.0
 74
     0
 49
-3.0
 74
     0
  0
LTYPE
  5
88
330
5
100
AcDbSymbolTableRecord
100
AcDbLinetypeTableRecord
  2
ACAD_ISO13W100
 70
     0
  3
ISO double-dash double-dot __ __ . . __ __ . . _
 72
    65
 73
     8
 40
36.0
 49
12.0
 74
     0
 49
-3.0
 74
     0
 49
12.0
 74
     0
 49
-3.0
 74
     0
 49
0.0
 74
     0
 49
-3.0
 74
     0
 49
0.0
 74
     0
 49
-3.0
 74
     0
  0
LTYPE
  5
89
330
5
100
AcDbSymbolTableRecord
100
AcDbLinetypeTableRecord
  2
ACAD_ISO14W100
 70
     0
  3
ISO dash triple-dot __ . . . __ . . . __ . . . _
 72
    65
 73
     8
 40
24.0
 49
12.0
 74
     0
 49
-3.0
 74
     0
 49
0.0
 74
     0
 49
-3.0
 74
     0
 49
0.0
 74
     0
 49
-3.0
 74
     0
 49
0.0
 74
     0
 49
-3.0
 74
     0
  0
LTYPE
  5
8A
330
5
100
AcDbSymbolTableRecord
100
AcDbLinetypeTableRecord
  2
ACAD_ISO02W100
 70
     0
  3
ISO dash __ __ __ __ __ __ __ __ __ __ __ __ __
 72
    65
 73
     2
 40
15.0
 49
12.0
 74
     0
 49
-3.0
 74
     0
  0
LTYPE
  5
8B
330
5
100
AcDbSymbolTableRecord
100
AcDbLinetypeTableRecord
  2
ACAD_ISO03W100
 70
     0
  3
ISO dash space __    __    __    __    __    __
 72
    65
 73
     2
 40
30.0
 49
12.0
 74
     0
 49
-18.0
 74
     0
  0
LTYPE
  5
8C
330
5
100
AcDbSymbolTableRecord
100
AcDbLinetypeTableRecord
  2
ACAD_ISO04W100
 70
     0
  3
ISO long-dash dot ____ . ____ . ____ . ____ . _
 72
    65
 73
     4
 40
30.0
 49
24.0
 74
     0
 49
-3.0
 74
     0
 49
0.0
 74
     0
 49
-3.0
 74
     0
  0
LTYPE
  5
8D
330
5
100
AcDbSymbolTableRecord
100
AcDbLinetypeTableRecord
  2
ACAD_ISO05W100
 70
     0
  3
ISO long-dash double-dot ____ .. ____ .. ____ . 
 72
    65
 73
     6
 40
33.0
 49
24.0
 74
     0
 49
-3.0
 74
     0
 49
0.0
 74
     0
 49
-3.0
 74
     0
 49
0.0
 74
     0
 49
-3.0
 74
     0
  0
LTYPE
  5
8E
330
5
100
AcDbSymbolTableRecord
100
AcDbLinetypeTableRecord
  2
ACAD_ISO07W100
 70
     0
  3
ISO dot . . . . . . . . . . . . . . . . . . . . 
 72
    65
 73
     2
 40
3.0
 49
0.0
 74
     0
 49
-3.0
 74
     0
  0
LTYPE
  5
8F
330
5
100
AcDbSymbolTableRecord
100
AcDbLinetypeTableRecord
  2
ACAD_ISO08W100
 70
     0
  3
ISO long-dash short-dash ____ __ ____ __ ____ _
 72
    65
 73
     4
 40
36.0
 49
24.0
 74
     0
 49
-3.0
 74
     0
 49
6.0
 74
     0
 49
-3.0
 74
     0
  0
LTYPE
  5
90
330
5
100
AcDbSymbolTableRecord
100
AcDbLinetypeTableRecord
  2
ACAD_ISO09W100
 70
     0
  3
ISO long-dash double-short-dash ____ __ __ ____
 72
    65
 73
     6
 40
45.0
 49
24.0
 74
     0
 49
-3.0
 74
     0
 49
6.0
 74
     0
 49
-3.0
 74
     0
 49
6.0
 74
     0
 49
-3.0
 74
     0
  0
LTYPE
  5
91
330
5
100
AcDbSymbolTableRecord
100
AcDbLinetypeTableRecord
  2
ACAD_ISO10W100
 70
     0
  3
ISO dash dot __ . __ . __ . __ . __ . __ . __ . 
 72
    65
 73
     4
 40
18.0
 49
12.0
 74
     0
 49
-3.0
 74
     0
 49
0.0
 74
     0
 49
-3.0
 74
     0
  0
LTYPE
  5
92
330
5
100
AcDbSymbolTableRecord
100
AcDbLinetypeTableRecord
  2
ACAD_ISO11W100
 70
     0
  3
ISO double-dash dot __ __ . __ __ . __ __ . __ _
 72
    65
 73
     6
 40
33.0
 49
12.0
 74
     0
 49
-3.0
 74
     0
 49
12.0
 74
     0
 49
-3.0
 74
     0
 49
0.0
 74
     0
 49
-3.0
 74
     0
  0
LTYPE
  5
93
330
5
100
AcDbSymbolTableRecord
100
AcDbLinetypeTableRecord
  2
ACAD_ISO12W100
 70
     0
  3
ISO dash double-dot __ . . __ . . __ . . __ . . 
 72
    65
 73
     6
 40
21.0
 49
12.0
 74
     0
 49
-3.0
 74
     0
 49
0.0
 74
     0
 49
-3.0
 74
     0
 49
0.0
 74
     0
 49
-3.0
 74
     0
  0
LTYPE
  5
94
330
5
100
AcDbSymbolTableRecord
100
AcDbLinetypeTableRecord
  2
ACAD_ISO15W100
 70
     0
  3
ISO double-dash triple-dot __ __ . . . __ __ . .
 72
    65
 73
    10
 40
39.0
 49
12.0
 74
     0
 49
-3.0
 74
     0
 49
12.0
 74
     0
 49
-3.0
 74
     0
 49
0.0
 74
     0
 49
-3.0
 74
     0
 49
0.0
 74
     0
 49
-3.0
 74
     0
 49
0.0
 74
     0
 49
-3.0
 74
     0
  0
LTYPE
  5
95
330
5
100
AcDbSymbolTableRecord
100
AcDbLinetypeTableRecord
  2
JIS_02_0.7
 70
     0
  3
HIDDEN0.75 _ _ _ _ _ _ _ _ _ _ _ _ _ _ _ _ _ 
 72
    65
 73
     2
 40
1.35
 49
0.75
 74
     0
 49
-0.6
 74
     0
  0
LTYPE
  5
96
330
5
100
AcDbSymbolTableRecord
100
AcDbLinetypeTableRecord
  2
JIS_02_1.0
 70
     0
  3
HIDDEN01 _ _ _ _ _ _ _ _ _ _ _ _ _ _ _ _ _ 
 72
    65
 73
     2
 40
2.0
 49
1.0
 74
     0
 49
-1.0
 74
     0
  0
LTYPE
  5
97
330
5
100
AcDbSymbolTableRecord
100
AcDbLinetypeTableRecord
  2
JIS_02_1.2
 70
     0
  3
HIDDEN01.25  _ _ _ _ _ _ _ _ _ _ _ _ _ _ _ _ _ 
 72
    65
 73
     2
 40
2.5
 49
1.25
 74
     0
 49
-1.25
 74
     0
  0
LTYPE
  5
98
330
5
100
AcDbSymbolTableRecord
100
AcDbLinetypeTableRecord
  2
JIS_02_2.0
 70
     0
  3
HIDDEN02 __ __ __ __ __ __ __ __ __ __ __ 
 72
    65
 73
     2
 40
3.0
 49
2.0
 74
     0
 49
-1.0
 74
     0
  0
LTYPE
  5
99
330
5
100
AcDbSymbolTableRecord
100
AcDbLinetypeTableRecord
  2
JIS_02_4.0
 70
     0
  3
HIDDEN04 ____ ____ ____ ____ ____ ____ ____ 
 72
    65
 73
     2
 40
5.5
 49
4.0
 74
     0
 49
-1.5
 74
     0
  0
LTYPE
  5
9A
330
5
100
AcDbSymbolTableRecord
100
AcDbLinetypeTableRecord
  2
JIS_08_11
 70
     0
  3
1SASEN11 ___ _ ___ _ ___ _ ___ _ ___ _ ___
 72
    65
 73
     4
 40
12.8
 49
11.0
 74
     0
 49
-0.6
 74
     0
 49
0.6
 74
     0
 49
-0.6
 74
     0
  0
LTYPE
  5
9B
330
5
100
AcDbSymbolTableRecord
100
AcDbLinetypeTableRecord
  2
JIS_08_15
 70
     0
  3
1SASEN15 ____ _ ____ _ ____ _ ____ _ ____ 
 72
    65
 73
     4
 40
17.25
 49
15.0
 74
     0
 49
-0.75
 74
     0
 49
0.75
 74
     0
 49
-0.75
 74
     0
  0
LTYPE
  5
9C
330
5
100
AcDbSymbolTableRecord
100
AcDbLinetypeTableRecord
  2
JIS_08_25
 70
     0
  3
1SASEN25 ________  __  ________  __  _____
 72
    65
 73
     4
 40
28.0
 49
25.0
 74
     0
 49
-1.125
 74
     0
 49
0.75
 74
     0
 49
-1.125
 74
     0
  0
LTYPE
  5
9D
330
5
100
AcDbSymbolTableRecord
100
AcDbLinetypeTableRecord
  2
JIS_08_37
 70
     0
  3
1SASEN37 ________  __  ________  __  _____
 72
    65
 73
     4
 40
40.5
 49
37.5
 74
     0
 49
-1.125
 74
     0
 49
0.75
 74
     0
 49
-1.125
 74
     0
  0
LTYPE
  5
9E
330
5
100
AcDbSymbolTableRecord
100
AcDbLinetypeTableRecord
  2
JIS_08_50
 70
     0
  3
1SASEN50 _______________  __  ____________
 72
    65
 73
     4
 40
53.0
 49
50.0
 74
     0
 49
-1.125
 74
     0
 49
0.75
 74
     0
 49
-1.125
 74
     0
  0
LTYPE
  5
9F
330
5
100
AcDbSymbolTableRecord
100
AcDbLinetypeTableRecord
  2
JIS_09_08
 70
     0
  3
2SASEN8 __ _ _ __ _ _ __ _ _ __ _ _ __ _ _ 
 72
    65
 73
     6
 40
10.75
 49
8.0
 74
     0
 49
-0.55
 74
     0
 49
0.55
 74
     0
 49
-0.55
 74
     0
 49
0.55
 74
     0
 49
-0.55
 74
     0
  0
LTYPE
  5
A0
330
5
100
AcDbSymbolTableRecord
100
AcDbLinetypeTableRecord
  2
JIS_09_15
 70
     0
  3
2SASEN15 ___ _ _ ___ _ _ ___ _ _ ___ _ _ ___ 
 72
    65
 73
     6
 40
18.9
 49
15.0
 74
     0
 49
-0.9
 74
     0
 49
0.6
 74
     0
 49
-0.9
 74
     0
 49
0.6
 74
     0
 49
-0.9
 74
     0
  0
LTYPE
  5
A1
330
5
100
AcDbSymbolTableRecord
100
AcDbLinetypeTableRecord
  2
JIS_09_29
 70
     0
  3
2SASEN29 ______　__  __  ______　__  __  ___
 72
    65
 73
     6
 40
34.0
 49
29.0
 74
     0
 49
-1.2
 74
     0
 49
0.7
 74
     0
 49
-1.2
 74
     0
 49
0.7
 74
     0
 49
-1.2
 74
     0
  0
LTYPE
  5
A2
330
5
100
AcDbSymbolTableRecord
100
AcDbLinetypeTableRecord
  2
JIS_09_50
 70
     0
  3
2SASEN50 ____________　__  __  _____________
 72
    65
 73
     6
 40
55.0
 49
50.0
 74
     0
 49
-1.2
 74
     0
 49
0.7
 74
     0
 49
-1.2
 74
     0
 49
0.7
 74
     0
 49
-1.2
 74
     0
  0
LTYPE
  5
A3
330
5
100
AcDbSymbolTableRecord
100
AcDbLinetypeTableRecord
  2
SXF_破線
 70
     0
  3
02 dashed -- -- -- -- -- --
 72
    65
 73
     2
 40
7.5
 49
6.0
 74
     0
 49
-1.5
 74
     0
  0
LTYPE
  5
A4
330
5
100
AcDbSymbolTableRecord
100
AcDbLinetypeTableRecord
  2
SXF_跳び破線
 70
     0
  3
03 dashed_spaced --  --  --  --
 72
    65
 73
     2
 40
12.0
 49
6.0
 74
     0
 49
-6.0
 74
     0
  0
LTYPE
  5
A5
330
5
100
AcDbSymbolTableRecord
100
AcDbLinetypeTableRecord
  2
SXF_一点長鎖線
 70
     0
  3
04 long_dashed_dotted ---- . ---- . ----
 72
    65
 73
     4
 40
15.25
 49
12.0
 74
     0
 49
-1.5
 74
     0
 49
0.25
 74
     0
 49
-1.5
 74
     0
  0
LTYPE
  5
A6
330
5
100
AcDbSymbolTableRecord
100
AcDbLinetypeTableRecord
  2
SXF_二点長鎖線
 70
     0
  3
05 long_dashed_double-dotted ---- . . ---- 
 72
    65
 73
     6
 40
17.0
 49
12.0
 74
     0
 49
-1.5
 74
     0
 49
0.25
 74
     0
 49
-1.5
 74
     0
 49
0.25
 74
     0
 49
-1.5
 74
     0
  0
LTYPE
  5
A7
330
5
100
AcDbSymbolTableRecord
100
AcDbLinetypeTableRecord
  2
SXF_三点長鎖線
 70
     0
  3
06 long_dashed_triplicate-dotted ---- ... ---- 
 72
    65
 73
     8
 40
18.75
 49
12.0
 74
     0
 49
-1.5
 74
     0
 49
0.25
 74
     0
 49
-1.5
 74
     0
 49
0.25
 74
     0
 49
-1.5
 74
     0
 49
0.25
 74
     0
 49
-1.5
 74
     0
  0
LTYPE
  5
A8
330
5
100
AcDbSymbolTableRecord
100
AcDbLinetypeTableRecord
  2
SXF_点線
 70
     0
  3
07 dotted . . . . . . . . . . . . 
 72
    65
 73
     2
 40
1.75
 49
0.25
 74
     0
 49
-1.5
 74
     0
  0
LTYPE
  5
A9
330
5
100
AcDbSymbolTableRecord
100
AcDbLinetypeTableRecord
  2
SXF_一点鎖線
 70
     0
  3
08 chain ---- - --- - --- - ---
 72
    65
 73
     4
 40
18.5
 49
12.0
 74
     0
 49
-1.5
 74
     0
 49
3.5
 74
     0
 49
-1.5
 74
     0
  0
LTYPE
  5
AA
330
5
100
AcDbSymbolTableRecord
100
AcDbLinetypeTableRecord
  2
SXF_二点鎖線
 70
     0
  3
09 chain_double_dash ---- - - ---- - - ----
 72
    65
 73
     6
 40
23.5
 49
12.0
 74
     0
 49
-1.5
 74
     0
 49
3.5
 74
     0
 49
-1.5
 74
     0
 49
3.5
 74
     0
 49
-1.5
 74
     0
  0
LTYPE
  5
AB
330
5
100
AcDbSymbolTableRecord
100
AcDbLinetypeTableRecord
  2
SXF_一点短鎖線
 70
     0
  3
10 dashed_dotted -- . -- . -- . --
 72
    65
 73
     4
 40
9.25
 49
6.0
 74
     0
 49
-1.5
 74
     0
 49
0.25
 74
     0
 49
-1.5
 74
     0
  0
LTYPE
  5
AC
330
5
100
AcDbSymbolTableRecord
100
AcDbLinetypeTableRecord
  2
SXF_一点二短鎖線
 70
     0
  3
11 double-dashed_dotted -- -- . -- --
 72
    65
 73
     6
 40
16.75
 49
6.0
 74
     0
 49
-1.5
 74
     0
 49
6.0
 74
     0
 49
-1.5
 74
     0
 49
0.25
 74
     0
 49
-1.5
 74
     0
  0
LTYPE
  5
AD
330
5
100
AcDbSymbolTableRecord
100
AcDbLinetypeTableRecord
  2
SXF_二点短鎖線
 70
     0
  3
12 dashed_double_dotted -- . . -- . . --
 72
    65
 73
     6
 40
11.0
 49
6.0
 74
     0
 49
-1.5
 74
     0
 49
0.25
 74
     0
 49
-1.5
 74
     0
 49
0.25
 74
     0
 49
-1.5
 74
     0
  0
LTYPE
  5
AE
330
5
100
AcDbSymbolTableRecord
100
AcDbLinetypeTableRecord
  2
SXF_二点二短鎖線
 70
     0
  3
13 double-dashed_double-dotted -- -- . . -- --
 72
    65
 73
     8
 40
18.5
 49
6.0
 74
     0
 49
-1.5
 74
     0
 49
6.0
 74
     0
 49
-1.5
 74
     0
 49
0.25
 74
     0
 49
-1.5
 74
     0
 49
0.25
 74
     0
 49
-1.5
 74
     0
  0
LTYPE
  5
AF
330
5
100
AcDbSymbolTableRecord
100
AcDbLinetypeTableRecord
  2
SXF_三点短鎖線
 70
     0
  3
14 dashed triplicate-dotted -- . . . -- . . . --
 72
    65
 73
     8
 40
12.75
 49
6.0
 74
     0
 49
-1.5
 74
     0
 49
0.25
 74
     0
 49
-1.5
 74
     0
 49
0.25
 74
     0
 49
-1.5
 74
     0
 49
0.25
 74
     0
 49
-1.5
 74
     0
  0
LTYPE
  5
B0
330
5
100
AcDbSymbolTableRecord
100
AcDbLinetypeTableRecord
  2
SXF_三点二短鎖線
 70
     0
  3
15 double-dashed triplicate-dotted -- -- . . . -- -- 
 72
    65
 73
    10
 40
20.25
 49
6.0
 74
     0
 49
-1.5
 74
     0
 49
6.0
 74
     0
 49
-1.5
 74
     0
 49
0.25
 74
     0
 49
-1.5
 74
     0
 49
0.25
 74
     0
 49
-1.5
 74
     0
 49
0.25
 74
     0
 49
-1.5
 74
     0
  0
ENDTAB
  0
TABLE
  2
LAYER
  5
2
330
0
100
AcDbSymbolTable
 70
     2
  0
LAYER
  5
10
330
2
100
AcDbSymbolTableRecord
100
AcDbLayerTableRecord
  2
0
 70
     0
 62
     7
  6
Continuous
370
    -3
390
F
347
46
  0
LAYER
  5
B1
330
2
100
AcDbSymbolTableRecord
100
AcDbLayerTableRecord
  2
ZUWAKU
 70
     0
 62
     7
  6
Continuous
370
    -3
390
F
347
46
  0
ENDTAB
  0
TABLE
  2
STYLE
  5
3
330
0
100
AcDbSymbolTable
 70
     2
  0
STYLE
  5
11
330
3
100
AcDbSymbolTableRecord
100
AcDbTextStyleTableRecord
  2
Standard
 70
     0
 40
0.0
 41
1.0
 50
0.0
 71
     0
 42
0.2
  3
txt.shx
  4
extfont2.shx
  0
STYLE
  5
1CE
330
3
100
AcDbSymbolTableRecord
100
AcDbTextStyleTableRecord
  2
dcStyle0
 70
     0
 40
0.0
 41
0.5
 50
0.0
 71
     0
 42
0.2
  3
txt.shx
  4
extfont2
  0
ENDTAB
  0
TABLE
  2
VIEW
  5
6
330
0
100
AcDbSymbolTable
 70
     0
  0
ENDTAB
  0
TABLE
  2
UCS
  5
7
330
0
100
AcDbSymbolTable
 70
     0
  0
ENDTAB
  0
TABLE
  2
APPID
  5
9
330
0
100
AcDbSymbolTable
 70
     2
  0
APPID
  5
12
330
9
100
AcDbSymbolTableRecord
100
AcDbRegAppTableRecord
  2
ACAD
 70
     0
  0
APPID
  5
6E
330
9
100
AcDbSymbolTableRecord
100
AcDbRegAppTableRecord
  2
DaFusionOut
 70
     0
  0
ENDTAB
  0
TABLE
  2
DIMSTYLE
  5
A
330
0
100
AcDbSymbolTable
 70
     2
100
AcDbDimStyleTable
  0
DIMSTYLE
105
27
330
A
100
AcDbSymbolTableRecord
100
AcDbDimStyleTableRecord
  2
Standard
 70
     0
178
     0
340
11
  0
DIMSTYLE
105
428
102
{ACAD_REACTORS
330
427
330
429
330
42A
330
42B
330
42D
330
437
330
438
330
439
330
43E
330
43F
330
440
330
441
330
442
330
443
330
444
330
445
330
446
330
44A
102
}
330
A
100
AcDbSymbolTableRecord
100
AcDbDimStyleTableRecord
  2
dc_Rotated
 70
     0
 41
3.000001907348633
 42
1.0
 44
1.0
 90
        1
 73
     0
 74
     0
 77
     3
 78
     8
 79
     2
140
4.5
147
1.0
172
     1
173
     1
176
     2
177
     2
271
     2
178
     4
271
     2
274
     4
283
     0
284
     8
288
     1
340
1CE
343
1C6
344
1C6
  0
ENDTAB
  0
TABLE
  2
BLOCK_RECORD
  5
1
330
0
100
AcDbSymbolTable
 70
    66
  0
BLOCK_RECORD
  5
1F
330
1
100
AcDbSymbolTableRecord
100
AcDbBlockTableRecord
  2
*Model_Space
340
22
 70
     0
280
     1
281
     0
  0
BLOCK_RECORD
  5
1B
330
1
100
AcDbSymbolTableRecord
100
AcDbBlockTableRecord
  2
*Paper_Space
340
1E
 70
     0
280
     1
281
     0
  0
BLOCK_RECORD
  5
23
330
1
100
AcDbSymbolTableRecord
100
AcDbBlockTableRecord
  2
*Paper_Space0
340
26
 70
     0
280
     1
281
     0
  0
BLOCK_RECORD
  5
B3
330
1
100
AcDbSymbolTableRecord
100
AcDbBlockTableRecord
  2
DC_GROUP_COM-2117  PSLJC2-00S304A_1
340
0
102
{BLKREFS
331
41D
102
}
 70
     0
280
     1
281
     0
  0
BLOCK_RECORD
  5
B6
330
1
100
AcDbSymbolTableRecord
100
AcDbBlockTableRecord
  2
DC_GROUP_COM-2117  PSLJC2-00S304A_2
340
0
102
{BLKREFS
331
41E
102
}
 70
     0
280
     1
281
     0
  0
BLOCK_RECORD
  5
B9
330
1
100
AcDbSymbolTableRecord
100
AcDbBlockTableRecord
  2
DC_GROUP_COM-2117  PSLJC2-00S304A_3
340
0
102
{BLKREFS
331
41F
102
}
 70
     0
280
     1
281
     0
  0
BLOCK_RECORD
  5
BC
330
1
100
AcDbSymbolTableRecord
100
AcDbBlockTableRecord
  2
DC_GROUP_COM-2117  PSLJC2-00S304A_4
340
0
102
{BLKREFS
331
19C
102
}
 70
     0
280
     1
281
     0
  0
BLOCK_RECORD
  5
BF
330
1
100
AcDbSymbolTableRecord
100
AcDbBlockTableRecord
  2
DC_GROUP_COM-2117  PSLJC2-00S304A_5
340
0
102
{BLKREFS
331
420
102
}
 70
     0
280
     1
281
     0
  0
BLOCK_RECORD
  5
C2
330
1
100
AcDbSymbolTableRecord
100
AcDbBlockTableRecord
  2
DC_GROUP_COM-2117  PSLJC2-00S304A_6
340
0
102
{BLKREFS
331
421
102
}
 70
     0
280
     1
281
     0
  0
BLOCK_RECORD
  5
C5
330
1
100
AcDbSymbolTableRecord
100
AcDbBlockTableRecord
  2
DC_GROUP_COM-2117  PSLJC2-00S304A_7
340
0
102
{BLKREFS
331
422
102
}
 70
     0
280
     1
281
     0
  0
BLOCK_RECORD
  5
C8
330
1
100
AcDbSymbolTableRecord
100
AcDbBlockTableRecord
  2
DC_GROUP_COM-2117  PSLJC2-00S304A_8
340
0
102
{BLKREFS
331
423
102
}
 70
     0
280
     1
281
     0
  0
BLOCK_RECORD
  5
CB
330
1
100
AcDbSymbolTableRecord
100
AcDbBlockTableRecord
  2
DC_GROUP_COM-2117  PSLJC2-00S304A_9
340
0
102
{BLKREFS
331
424
102
}
 70
     0
280
     1
281
     0
  0
BLOCK_RECORD
  5
CE
330
1
100
AcDbSymbolTableRecord
100
AcDbBlockTableRecord
  2
DC_GROUP_COM-2117  PSLJC2-00S304A_10
340
0
102
{BLKREFS
331
425
102
}
 70
     0
280
     1
281
     0
  0
BLOCK_RECORD
  5
D1
330
1
100
AcDbSymbolTableRecord
100
AcDbBlockTableRecord
  2
DC_GROUP_COM-2117  PSLJC2-00S304A_11
340
0
102
{BLKREFS
331
426
102
}
 70
     0
280
     1
281
     0
  0
BLOCK_RECORD
  5
D4
330
1
100
AcDbSymbolTableRecord
100
AcDbBlockTableRecord
  2
*D12
340
0
 70
     0
280
     1
281
     0
  0
BLOCK_RECORD
  5
D7
330
1
100
AcDbSymbolTableRecord
100
AcDbBlockTableRecord
  2
*D13
340
0
 70
     0
280
     1
281
     0
  0
BLOCK_RECORD
  5
DA
330
1
100
AcDbSymbolTableRecord
100
AcDbBlockTableRecord
  2
*D14
340
0
 70
     0
280
     1
281
     0
  0
BLOCK_RECORD
  5
DD
330
1
100
AcDbSymbolTableRecord
100
AcDbBlockTableRecord
  2
*D15
340
0
 70
     0
280
     1
281
     0
  0
BLOCK_RECORD
  5
E0
330
1
100
AcDbSymbolTableRecord
100
AcDbBlockTableRecord
  2
DC_IMAGEDIMGROUP_1
340
0
102
{BLKREFS
331
42C
102
}
 70
     0
280
     1
281
     0
  0
BLOCK_RECORD
  5
E3
330
1
100
AcDbSymbolTableRecord
100
AcDbBlockTableRecord
  2
*D17
340
0
 70
     0
280
     1
281
     0
  0
BLOCK_RECORD
  5
E6
330
1
100
AcDbSymbolTableRecord
100
AcDbBlockTableRecord
  2
DC_GROUP_COM-2117  PSLJC2-00S304A_12
340
0
102
{BLKREFS
331
44B
102
}
 70
     0
280
     1
281
     0
  0
BLOCK_RECORD
  5
E9
330
1
100
AcDbSymbolTableRecord
100
AcDbBlockTableRecord
  2
DC_GROUP_COM-2117  PSLJC2-00S304A_13
340
0
102
{BLKREFS
331
44C
102
}
 70
     0
280
     1
281
     0
  0
BLOCK_RECORD
  5
EC
330
1
100
AcDbSymbolTableRecord
100
AcDbBlockTableRecord
  2
DC_GROUP_COM-2117  PSLJC2-00S304A_14
340
0
102
{BLKREFS
331
44D
102
}
 70
     0
280
     1
281
     0
  0
BLOCK_RECORD
  5
EF
330
1
100
AcDbSymbolTableRecord
100
AcDbBlockTableRecord
  2
DC_GROUP_COM-2117  PSLJC2-00S304A_15
340
0
102
{BLKREFS
331
44E
102
}
 70
     0
280
     1
281
     0
  0
BLOCK_RECORD
  5
F2
330
1
100
AcDbSymbolTableRecord
100
AcDbBlockTableRecord
  2
DC_GROUP_COM-2117  PSLJC2-00S304A_16
340
0
102
{BLKREFS
331
44F
102
}
 70
     0
280
     1
281
     0
  0
BLOCK_RECORD
  5
F5
330
1
100
AcDbSymbolTableRecord
100
AcDbBlockTableRecord
  2
DC_GROUP_COM-2117  PSLJC2-00S304A_17
340
0
102
{BLKREFS
331
42E
102
}
 70
     0
280
     1
281
     0
  0
BLOCK_RECORD
  5
F8
330
1
100
AcDbSymbolTableRecord
100
AcDbBlockTableRecord
  2
DC_GROUP_COM-2117  PSLJC2-00S304A_18
340
0
102
{BLKREFS
331
42F
102
}
 70
     0
280
     1
281
     0
  0
BLOCK_RECORD
  5
FB
330
1
100
AcDbSymbolTableRecord
100
AcDbBlockTableRecord
  2
DC_GROUP_COM-2117  PSLJC2-00S304A_19
340
0
102
{BLKREFS
331
430
102
}
 70
     0
280
     1
281
     0
  0
BLOCK_RECORD
  5
FE
330
1
100
AcDbSymbolTableRecord
100
AcDbBlockTableRecord
  2
DC_GROUP_COM-2117  PSLJC2-00S304A_20
340
0
102
{BLKREFS
331
431
102
}
 70
     0
280
     1
281
     0
  0
BLOCK_RECORD
  5
101
330
1
100
AcDbSymbolTableRecord
100
AcDbBlockTableRecord
  2
DC_GROUP_COM-2117  PSLJC2-00S304A_21
340
0
102
{BLKREFS
331
432
102
}
 70
     0
280
     1
281
     0
  0
BLOCK_RECORD
  5
104
330
1
100
AcDbSymbolTableRecord
100
AcDbBlockTableRecord
  2
DC_GROUP_COM-2117  PSLJC2-00S304A_22
340
0
102
{BLKREFS
331
245
102
}
 70
     0
280
     1
281
     0
  0
BLOCK_RECORD
  5
107
330
1
100
AcDbSymbolTableRecord
100
AcDbBlockTableRecord
  2
DC_GROUP_COM-2117  PSLJC2-00S304A_23
340
0
102
{BLKREFS
331
246
102
}
 70
     0
280
     1
281
     0
  0
BLOCK_RECORD
  5
10A
330
1
100
AcDbSymbolTableRecord
100
AcDbBlockTableRecord
  2
DC_GROUP_COM-2117  PSLJC2-00S304A_24
340
0
102
{BLKREFS
331
433
102
}
 70
     0
280
     1
281
     0
  0
BLOCK_RECORD
  5
10D
330
1
100
AcDbSymbolTableRecord
100
AcDbBlockTableRecord
  2
DC_GROUP_COM-2117  PSLJC2-00S304A_25
340
0
102
{BLKREFS
331
263
102
}
 70
     0
280
     1
281
     0
  0
BLOCK_RECORD
  5
110
330
1
100
AcDbSymbolTableRecord
100
AcDbBlockTableRecord
  2
DC_GROUP_COM-2117  PSLJC2-00S304A_26
340
0
102
{BLKREFS
331
264
102
}
 70
     0
280
     1
281
     0
  0
BLOCK_RECORD
  5
113
330
1
100
AcDbSymbolTableRecord
100
AcDbBlockTableRecord
  2
DC_GROUP_COM-2117  PSLJC2-00S304A_27
340
0
102
{BLKREFS
331
434
102
}
 70
     0
280
     1
281
     0
  0
BLOCK_RECORD
  5
116
330
1
100
AcDbSymbolTableRecord
100
AcDbBlockTableRecord
  2
DC_GROUP_COM-2117  PSLJC2-00S304A_28
340
0
102
{BLKREFS
331
435
102
}
 70
     0
280
     1
281
     0
  0
BLOCK_RECORD
  5
119
330
1
100
AcDbSymbolTableRecord
100
AcDbBlockTableRecord
  2
DC_GROUP_COM-2117  PSLJC2-00S304A_29
340
0
102
{BLKREFS
331
436
102
}
 70
     0
280
     1
281
     0
  0
BLOCK_RECORD
  5
11C
330
1
100
AcDbSymbolTableRecord
100
AcDbBlockTableRecord
  2
*D36
340
0
 70
     0
280
     1
281
     0
  0
BLOCK_RECORD
  5
11F
330
1
100
AcDbSymbolTableRecord
100
AcDbBlockTableRecord
  2
*D37
340
0
 70
     0
280
     1
281
     0
  0
BLOCK_RECORD
  5
122
330
1
100
AcDbSymbolTableRecord
100
AcDbBlockTableRecord
  2
*D38
340
0
 70
     0
280
     1
281
     0
  0
BLOCK_RECORD
  5
125
330
1
100
AcDbSymbolTableRecord
100
AcDbBlockTableRecord
  2
DC_GROUP_COM-2117  PSLJC2-00S304A_30
340
0
102
{BLKREFS
331
43A
102
}
 70
     0
280
     1
281
     0
  0
BLOCK_RECORD
  5
128
330
1
100
AcDbSymbolTableRecord
100
AcDbBlockTableRecord
  2
DC_GROUP_COM-2117  PSLJC2-00S304A_31
340
0
102
{BLKREFS
331
43B
102
}
 70
     0
280
     1
281
     0
  0
BLOCK_RECORD
  5
12B
330
1
100
AcDbSymbolTableRecord
100
AcDbBlockTableRecord
  2
DC_GROUP_COM-2117  PSLJC2-00S304A_32
340
0
102
{BLKREFS
331
2C9
102
}
 70
     0
280
     1
281
     0
  0
BLOCK_RECORD
  5
12E
330
1
100
AcDbSymbolTableRecord
100
AcDbBlockTableRecord
  2
DC_GROUP_COM-2117  PSLJC2-00S304A_33
340
0
102
{BLKREFS
331
43C
102
}
 70
     0
280
     1
281
     0
  0
BLOCK_RECORD
  5
131
330
1
100
AcDbSymbolTableRecord
100
AcDbBlockTableRecord
  2
DC_GROUP_COM-2117  PSLJC2-00S304A_34
340
0
102
{BLKREFS
331
2D4
102
}
 70
     0
280
     1
281
     0
  0
BLOCK_RECORD
  5
134
330
1
100
AcDbSymbolTableRecord
100
AcDbBlockTableRecord
  2
DC_GROUP_COM-2117  PSLJC2-00S304A_35
340
0
102
{BLKREFS
331
2DC
102
}
 70
     0
280
     1
281
     0
  0
BLOCK_RECORD
  5
137
330
1
100
AcDbSymbolTableRecord
100
AcDbBlockTableRecord
  2
DC_GROUP_COM-2117  PSLJC2-00S304A_36
340
0
102
{BLKREFS
331
43D
102
}
 70
     0
280
     1
281
     0
  0
BLOCK_RECORD
  5
13A
330
1
100
AcDbSymbolTableRecord
100
AcDbBlockTableRecord
  2
DC_GROUP_COM-2117  PSLJC2-00S304A_37
340
0
102
{BLKREFS
331
2E4
102
}
 70
     0
280
     1
281
     0
  0
BLOCK_RECORD
  5
13D
330
1
100
AcDbSymbolTableRecord
100
AcDbBlockTableRecord
  2
DC_GROUP_COM-2117  PSLJC2-00S304A_38
340
0
102
{BLKREFS
331
2E5
102
}
 70
     0
280
     1
281
     0
  0
BLOCK_RECORD
  5
140
330
1
100
AcDbSymbolTableRecord
100
AcDbBlockTableRecord
  2
*D48
340
0
 70
     0
280
     1
281
     0
  0
BLOCK_RECORD
  5
143
330
1
100
AcDbSymbolTableRecord
100
AcDbBlockTableRecord
  2
*D49
340
0
 70
     0
280
     1
281
     0
  0
BLOCK_RECORD
  5
146
330
1
100
AcDbSymbolTableRecord
100
AcDbBlockTableRecord
  2
*D50
340
0
 70
     0
280
     1
281
     0
  0
BLOCK_RECORD
  5
149
330
1
100
AcDbSymbolTableRecord
100
AcDbBlockTableRecord
  2
*D51
340
0
 70
     0
280
     1
281
     0
  0
BLOCK_RECORD
  5
14C
330
1
100
AcDbSymbolTableRecord
100
AcDbBlockTableRecord
  2
*D52
340
0
 70
     0
280
     1
281
     0
  0
BLOCK_RECORD
  5
14F
330
1
100
AcDbSymbolTableRecord
100
AcDbBlockTableRecord
  2
*D53
340
0
 70
     0
280
     1
281
     0
  0
BLOCK_RECORD
  5
152
330
1
100
AcDbSymbolTableRecord
100
AcDbBlockTableRecord
  2
*D54
340
0
 70
     0
280
     1
281
     0
  0
BLOCK_RECORD
  5
155
330
1
100
AcDbSymbolTableRecord
100
AcDbBlockTableRecord
  2
*D55
340
0
 70
     0
280
     1
281
     0
  0
BLOCK_RECORD
  5
158
330
1
100
AcDbSymbolTableRecord
100
AcDbBlockTableRecord
  2
*D56
340
0
 70
     0
280
     1
281
     0
  0
BLOCK_RECORD
  5
15B
330
1
100
AcDbSymbolTableRecord
100
AcDbBlockTableRecord
  2
DC_GROUP_COM-2117  PSLJC2-00S304A_39
340
0
102
{BLKREFS
331
447
102
}
 70
     0
280
     1
281
     0
  0
BLOCK_RECORD
  5
15E
330
1
100
AcDbSymbolTableRecord
100
AcDbBlockTableRecord
  2
DC_GROUP_COM-2117  PSLJC2-00S304A_40
340
0
102
{BLKREFS
331
332
102
}
 70
     0
280
     1
281
     0
  0
BLOCK_RECORD
  5
161
330
1
100
AcDbSymbolTableRecord
100
AcDbBlockTableRecord
  2
DC_GROUP_COM-2117  PSLJC2-00S304A_41
340
0
102
{BLKREFS
331
335
102
}
 70
     0
280
     1
281
     0
  0
BLOCK_RECORD
  5
164
330
1
100
AcDbSymbolTableRecord
100
AcDbBlockTableRecord
  2
DC_GROUP_COM-2117  PSLJC2-00S304A_42
340
0
102
{BLKREFS
331
448
102
}
 70
     0
280
     1
281
     0
  0
BLOCK_RECORD
  5
167
330
1
100
AcDbSymbolTableRecord
100
AcDbBlockTableRecord
  2
DC_GROUP_COM-2117  PSLJC2-00S304A_43
340
0
102
{BLKREFS
331
449
102
}
 70
     0
280
     1
281
     0
  0
BLOCK_RECORD
  5
16A
330
1
100
AcDbSymbolTableRecord
100
AcDbBlockTableRecord
  2
DC_GROUP_COM-2117  PSLJC2-00S304A_44
340
0
102
{BLKREFS
331
34B
102
}
 70
     0
280
     1
281
     0
  0
BLOCK_RECORD
  5
16D
330
1
100
AcDbSymbolTableRecord
100
AcDbBlockTableRecord
  2
*D63
340
0
 70
     0
280
     1
281
     0
  0
BLOCK_RECORD
  5
1C6
330
1
100
AcDbSymbolTableRecord
100
AcDbBlockTableRecord
  2
_Open30
340
0
102
{BLKREFS
331
1CC
331
1D1
331
1D5
331
1D6
331
1DE
331
1E0
331
1E3
331
1E4
331
1E9
331
1EA
331
1EF
331
1F3
331
1F4
331
28E
331
290
331
294
331
295
331
29A
331
29B
331
2A0
331
2A1
331
2F4
331
2F5
331
2FD
331
309
331
30C
331
30D
331
315
331
318
331
319
331
31E
331
31F
331
327
331
32E
331
353
331
354
102
}
 70
     0
280
     1
281
     0
  0
BLOCK_RECORD
  5
300
330
1
100
AcDbSymbolTableRecord
100
AcDbBlockTableRecord
  2
_Dot
340
0
102
{BLKREFS
331
305
331
32A
102
}
 70
     0
280
     1
281
     0
  0
ENDTAB
  0
ENDSEC
  0
SECTION
  2
BLOCKS
  0
BLOCK
  5
20
330
1F
100
AcDbEntity
  8
0
100
AcDbBlockBegin
  2
*Model_Space
 70
     0
 10
0.0
 20
0.0
 30
0.0
  3
*Model_Space
  1

  0
ENDBLK
  5
21
330
1F
100
AcDbEntity
  8
0
100
AcDbBlockEnd
  0
BLOCK
  5
1C
330
1B
100
AcDbEntity
 67
     1
  8
0
100
AcDbBlockBegin
  2
*Paper_Space
 70
     0
 10
0.0
 20
0.0
 30
0.0
  3
*Paper_Space
  1

  0
ENDBLK
  5
1D
330
1B
100
AcDbEntity
 67
     1
  8
0
100
AcDbBlockEnd
  0
BLOCK
  5
24
330
23
100
AcDbEntity
  8
0
100
AcDbBlockBegin
  2
*Paper_Space0
 70
     0
 10
0.0
 20
0.0
 30
0.0
  3
*Paper_Space0
  1

  0
ENDBLK
  5
25
330
23
100
AcDbEntity
  8
0
100
AcDbBlockEnd
  0
BLOCK
  5
B4
330
B3
100
AcDbEntity
  8
0
100
AcDbBlockBegin
  2
DC_GROUP_COM-2117  PSLJC2-00S304A_1
 70
     0
 10
0.0
 20
0.0
 30
0.0
  3
DC_GROUP_COM-2117  PSLJC2-00S304A_1
  1

  0
LINE
  5
170
330
B3
100
AcDbEntity
  8
0
  6
Continuous
 62
     4
370
    13
100
AcDbLine
 10
-84.26811594202897
 20
44.59683144712986
 30
0.0
 11
-84.26811594202897
 21
51.79683144712985
 31
0.0
  0
LINE
  5
171
330
B3
100
AcDbEntity
  8
0
  6
Continuous
 62
     4
370
    13
100
AcDbLine
 10
-84.26811594202897
 20
51.79683144712985
 30
0.0
 11
-85.06811594202898
 21
52.59683144712986
 31
0.0
  0
LINE
  5
172
330
B3
100
AcDbEntity
  8
0
  6
Continuous
 62
     4
370
    13
100
AcDbLine
 10
-84.26811594202897
 20
51.79683144712985
 30
0.0
 11
-97.26811594202897
 21
51.79683144712985
 31
0.0
  0
LINE
  5
173
330
B3
100
AcDbEntity
  8
0
  6
Continuous
 62
     4
370
    13
100
AcDbLine
 10
-84.26811594202897
 20
44.59683144712986
 30
0.0
 11
-97.26811594202897
 21
44.59683144712986
 31
0.0
  0
LINE
  5
174
330
B3
100
AcDbEntity
  8
0
  6
Continuous
 62
     4
370
    13
100
AcDbLine
 10
-97.26811594202897
 20
44.59683144712986
 30
0.0
 11
-97.26811594202897
 21
51.79683144712985
 31
0.0
  0
LINE
  5
175
330
B3
100
AcDbEntity
  8
0
  6
Continuous
 62
     4
370
    13
100
AcDbLine
 10
-97.26811594202897
 20
51.79683144712985
 30
0.0
 11
-96.46811594202897
 21
52.59683144712986
 31
0.0
  0
LINE
  5
176
330
B3
100
AcDbEntity
  8
0
  6
Continuous
 62
     4
370
    13
100
AcDbLine
 10
-85.06811594202898
 20
52.59683144712986
 30
0.0
 11
-96.46811594202897
 21
52.59683144712986
 31
0.0
  0
LINE
  5
177
330
B3
100
AcDbEntity
  8
0
  6
Continuous
 62
     4
370
    13
100
AcDbLine
 10
-86.76811594202897
 20
20.79683144712985
 30
0.0
 11
-94.76811594202897
 21
20.79683144712985
 31
0.0
  0
LINE
  5
178
330
B3
100
AcDbEntity
  8
0
  6
Continuous
 62
     4
370
    13
100
AcDbLine
 10
-87.96811594202897
 20
19.59683144712985
 30
0.0
 11
-93.56811594202898
 21
19.59683144712986
 31
0.0
  0
LINE
  5
179
330
B3
100
AcDbEntity
  8
0
  6
Continuous
 62
     4
370
    13
100
AcDbLine
 10
-86.76811594202897
 20
20.79683144712985
 30
0.0
 11
-87.96811594202897
 21
19.59683144712985
 31
0.0
  0
LINE
  5
17A
330
B3
100
AcDbEntity
  8
0
  6
Continuous
 62
     4
370
    13
100
AcDbLine
 10
-94.76811594202897
 20
20.79683144712985
 30
0.0
 11
-93.56811594202898
 21
19.59683144712986
 31
0.0
  0
LINE
  5
17B
330
B3
100
AcDbEntity
  8
0
  6
Continuous
 62
     4
370
    13
100
AcDbLine
 10
-94.76811594202897
 20
31.59683144712985
 30
0.0
 11
-94.76811594202897
 21
20.79683144712985
 31
0.0
  0
LINE
  5
17C
330
B3
100
AcDbEntity
  8
0
  6
Continuous
 62
     4
370
    13
100
AcDbLine
 10
-94.09161594202898
 20
31.59683144712985
 30
0.0
 11
-94.09161594202898
 21
20.12033144712985
 31
0.0
  0
LINE
  5
17D
330
B3
100
AcDbEntity
  8
0
  6
Continuous
 62
     4
370
    13
100
AcDbLine
 10
-86.76811594202897
 20
31.59683144712985
 30
0.0
 11
-86.76811594202897
 21
20.79683144712985
 31
0.0
  0
LINE
  5
17E
330
B3
100
AcDbEntity
  8
0
  6
Continuous
 62
     4
370
    13
100
AcDbLine
 10
-87.44461594202897
 20
31.59683144712985
 30
0.0
 11
-87.44461594202897
 21
20.12033144712985
 31
0.0
  0
LINE
  5
17F
330
B3
100
AcDbEntity
  8
0
  6
DASHED2
 62
     4
370
    13
100
AcDbLine
 10
-86.76811594202897
 20
43.57683144712986
 30
0.0
 11
-87.44461594202897
 21
41.07683144712986
 31
0.0
  0
LINE
  5
180
330
B3
100
AcDbEntity
  8
0
  6
DASHED2
 62
     4
370
    13
100
AcDbLine
 10
-86.76811594202897
 20
41.07683144712986
 30
0.0
 11
-94.76811594202897
 21
41.07683144712986
 31
0.0
  0
LINE
  5
181
330
B3
100
AcDbEntity
  8
0
  6
DASHED2
 62
     4
370
    13
100
AcDbLine
 10
-94.76811594202897
 20
43.57683144712986
 30
0.0
 11
-94.09161594202898
 21
41.07683144712986
 31
0.0
  0
ARC
  5
182
330
B3
100
AcDbEntity
  8
0
  6
DASHED2
 62
     4
370
    13
100
AcDbCircle
 10
-86.16811594202898
 20
44.19683144712985
 30
0.0
 40
0.4000000000000004
100
AcDbArc
 50
90.0
 51
162.1213034041585
  0
ARC
  5
183
330
B3
100
AcDbEntity
  8
0
  6
DASHED2
 62
     4
370
    13
100
AcDbCircle
 10
-95.36811594202898
 20
44.19683144712985
 30
0.0
 40
0.4000000000000016
100
AcDbArc
 50
17.87869659584152
 51
90.0
  0
ARC
  5
184
330
B3
100
AcDbEntity
  8
0
  6
DASHED2
 62
     4
370
    13
100
AcDbCircle
 10
-86.36811594202898
 20
43.57683144712986
 30
0.0
 40
0.4000000000000016
100
AcDbArc
 50
162.1213034041585
 51
180.0
  0
ARC
  5
185
330
B3
100
AcDbEntity
  8
0
  6
DASHED2
 62
     4
370
    13
100
AcDbCircle
 10
-95.16811594202898
 20
43.57683144712986
 30
0.0
 40
0.3999999999999986
100
AcDbArc
 50
0.0
 51
17.87869659584152
  0
LINE
  5
186
330
B3
100
AcDbEntity
  8
0
  6
DASHED2
 62
     4
370
    13
100
AcDbLine
 10
-86.7487993891332
 20
43.69963255909896
 30
0.0
 11
-86.5487993891332
 21
44.31963255909896
 31
0.0
  0
LINE
  5
187
330
B3
100
AcDbEntity
  8
0
  6
DASHED2
 62
     4
370
    13
100
AcDbLine
 10
-94.78743249492476
 20
43.69963255909896
 30
0.0
 11
-94.98743249492476
 21
44.31963255909896
 31
0.0
  0
LINE
  5
188
330
B3
100
AcDbEntity
  8
0
  6
DASHED2
 62
     4
370
    13
100
AcDbLine
 10
-94.76811594202897
 20
43.57683144712986
 30
0.0
 11
-94.76811594202897
 21
31.59683144712985
 31
0.0
  0
LINE
  5
189
330
B3
100
AcDbEntity
  8
0
  6
DASHED2
 62
     4
370
    13
100
AcDbLine
 10
-94.09161594202898
 20
41.07683144712986
 30
0.0
 11
-94.09161594202898
 21
31.59683144712985
 31
0.0
  0
LINE
  5
18A
330
B3
100
AcDbEntity
  8
0
  6
DASHED2
 62
     4
370
    13
100
AcDbLine
 10
-86.76811594202897
 20
43.57683144712986
 30
0.0
 11
-86.76811594202897
 21
31.59683144712985
 31
0.0
  0
LINE
  5
18B
330
B3
100
AcDbEntity
  8
0
  6
DASHED2
 62
     4
370
    13
100
AcDbLine
 10
-87.44461594202897
 20
41.07683144712986
 30
0.0
 11
-87.44461594202897
 21
31.59683144712985
 31
0.0
  0
LINE
  5
18C
330
B3
100
AcDbEntity
  8
0
  6
CENTER
 62
     2
370
    13
100
AcDbLine
 10
-90.76811594202897
 20
53.89683144712986
 30
0.0
 11
-90.76811594202897
 21
18.29683144712985
 31
0.0
  0
ENDBLK
  5
B5
330
B3
100
AcDbEntity
  8
0
100
AcDbBlockEnd
  0
BLOCK
  5
B7
330
B6
100
AcDbEntity
  8
0
100
AcDbBlockBegin
  2
DC_GROUP_COM-2117  PSLJC2-00S304A_2
 70
     0
 10
0.0
 20
0.0
 30
0.0
  3
DC_GROUP_COM-2117  PSLJC2-00S304A_2
  1

  0
LINE
  5
18D
330
B6
100
AcDbEntity
  8
0
  6
DASHED2
 62
     4
370
    13
100
AcDbLine
 10
-83.76811594202898
 20
33.19683144712985
 30
0.0
 11
-97.76811594202897
 21
33.19683144712985
 31
0.0
  0
LINE
  5
18E
330
B6
100
AcDbEntity
  8
0
  6
DASHED2
 62
     4
370
    13
100
AcDbLine
 10
-97.76811594202897
 20
42.99683144712986
 30
0.0
 11
-83.76811594202898
 21
42.99683144712986
 31
0.0
  0
LINE
  5
18F
330
B6
100
AcDbEntity
  8
0
  6
DASHED2
 62
     4
370
    13
100
AcDbLine
 10
-97.76811594202897
 20
40.59683144712985
 30
0.0
 11
-97.76811594202897
 21
42.99683144712986
 31
0.0
  0
LINE
  5
190
330
B6
100
AcDbEntity
  8
0
  6
DASHED2
 62
     4
370
    13
100
AcDbLine
 10
-97.76811594202897
 20
33.19683144712985
 30
0.0
 11
-97.76811594202897
 21
35.59683144712986
 31
0.0
  0
LINE
  5
191
330
B6
100
AcDbEntity
  8
0
  6
DASHED2
 62
     4
370
    13
100
AcDbLine
 10
-83.76811594202898
 20
35.59683144712986
 30
0.0
 11
-83.76811594202898
 21
33.19683144712985
 31
0.0
  0
LINE
  5
192
330
B6
100
AcDbEntity
  8
0
  6
DASHED2
 62
     4
370
    13
100
AcDbLine
 10
-83.76811594202898
 20
42.99683144712986
 30
0.0
 11
-83.76811594202898
 21
40.59683144712985
 31
0.0
  0
LINE
  5
193
330
B6
100
AcDbEntity
  8
0
  6
Continuous
 62
     3
370
    13
100
AcDbLine
 10
-97.76811594202897
 20
35.59683144712986
 30
0.0
 11
-97.76811594202897
 21
40.59683144712985
 31
0.0
  0
LINE
  5
194
330
B6
100
AcDbEntity
  8
0
  6
Continuous
 62
     3
370
    13
100
AcDbLine
 10
-83.76811594202898
 20
40.59683144712985
 30
0.0
 11
-83.76811594202898
 21
35.59683144712986
 31
0.0
  0
ENDBLK
  5
B8
330
B6
100
AcDbEntity
  8
0
100
AcDbBlockEnd
  0
BLOCK
  5
BA
330
B9
100
AcDbEntity
  8
0
100
AcDbBlockBegin
  2
DC_GROUP_COM-2117  PSLJC2-00S304A_3
 70
     0
 10
0.0
 20
0.0
 30
0.0
  3
DC_GROUP_COM-2117  PSLJC2-00S304A_3
  1

  0
LINE
  5
195
330
B9
100
AcDbEntity
  8
0
  6
Continuous
 62
     3
370
    18
100
AcDbLine
 10
-63.26811594202897
 20
4.096831447129858
 30
0.0
 11
-44.26811594202898
 21
4.096831447129858
 31
0.0
  0
ARC
  5
196
330
B9
100
AcDbEntity
  8
0
  6
Continuous
 62
     3
370
    18
100
AcDbCircle
 10
-55.45981418871327
 20
2.356020219808862
 30
0.0
 40
8.0
100
AcDbArc
 50
122.5841504300579
 51
167.4318091728248
  0
ARC
  5
197
330
B9
100
AcDbEntity
  8
0
  6
Continuous
 62
     3
370
    18
100
AcDbCircle
 10
-52.07641769534468
 20
2.356020219808862
 30
0.0
 40
7.999999999999999
100
AcDbArc
 50
12.56819082717523
 51
57.4158495699421
  0
LINE
  5
198
330
B9
100
AcDbEntity
  8
0
  6
DASHED2
 62
     4
370
    13
100
AcDbLine
 10
-62.06811594202897
 20
-35.90316855287014
 30
0.0
 11
-62.06811594202897
 21
4.096831447129858
 31
0.0
  0
LINE
  5
199
330
B9
100
AcDbEntity
  8
0
  6
DASHED2
 62
     4
370
    13
100
AcDbLine
 10
-45.46811594202897
 20
4.096831447129858
 30
0.0
 11
-45.46811594202897
 21
-35.90316855287014
 31
0.0
  0
ARC
  5
19A
330
B9
100
AcDbEntity
  8
0
  6
DASHED2
 62
     4
370
    13
100
AcDbCircle
 10
-54.25981418871327
 20
2.356020219808862
 30
0.0
 40
7.999999999999999
100
AcDbArc
 50
122.5841504300579
 51
167.4318091728248
  0
ARC
  5
19B
330
B9
100
AcDbEntity
  8
0
  6
DASHED2
 62
     4
370
    13
100
AcDbCircle
 10
-53.27641769534468
 20
2.356020219808862
 30
0.0
 40
7.999999999999999
100
AcDbArc
 50
12.56819082717523
 51
57.41584956994211
  0
INSERT
  5
19C
330
B9
100
AcDbEntity
  8
0
  6
Continuous
100
AcDbBlockReference
  2
DC_GROUP_COM-2117  PSLJC2-00S304A_4
 10
0.0
 20
0.0
 30
0.0
  0
ENDBLK
  5
BB
330
B9
100
AcDbEntity
  8
0
100
AcDbBlockEnd
  0
BLOCK
  5
BD
330
BC
100
AcDbEntity
  8
0
100
AcDbBlockBegin
  2
DC_GROUP_COM-2117  PSLJC2-00S304A_4
 70
     0
 10
0.0
 20
0.0
 30
0.0
  3
DC_GROUP_COM-2117  PSLJC2-00S304A_4
  1

  0
LINE
  5
19D
330
BC
100
AcDbEntity
  8
0
  6
Continuous
 62
     3
370
    18
100
AcDbLine
 10
-63.26811594202897
 20
-35.90316855287014
 30
0.0
 11
-44.26811594202898
 21
-35.90316855287014
 31
0.0
  0
LINE
  5
19E
330
BC
100
AcDbEntity
  8
0
  6
Continuous
 62
     3
370
    18
100
AcDbLine
 10
-59.76811594202898
 20
9.096831447129858
 30
0.0
 11
-47.76811594202898
 21
9.096831447129858
 31
0.0
  0
LINE
  5
19F
330
BC
100
AcDbEntity
  8
0
  6
Continuous
 62
     3
370
    18
100
AcDbLine
 10
-44.26811594202898
 20
-35.90316855287014
 30
0.0
 11
-44.26811594202898
 21
4.096831447129858
 31
0.0
  0
LINE
  5
1A0
330
BC
100
AcDbEntity
  8
0
  6
Continuous
 62
     3
370
    18
100
AcDbLine
 10
-63.26811594202897
 20
4.096831447129858
 30
0.0
 11
-63.26811594202897
 21
-35.90316855287014
 31
0.0
  0
ENDBLK
  5
BE
330
BC
100
AcDbEntity
  8
0
100
AcDbBlockEnd
  0
BLOCK
  5
C0
330
BF
100
AcDbEntity
  8
0
100
AcDbBlockBegin
  2
DC_GROUP_COM-2117  PSLJC2-00S304A_5
 70
     0
 10
0.0
 20
0.0
 30
0.0
  3
DC_GROUP_COM-2117  PSLJC2-00S304A_5
  1

  0
LINE
  5
1A1
330
BF
100
AcDbEntity
  8
0
  6
Continuous
 62
     3
370
    18
100
AcDbLine
 10
-97.76811594202897
 20
117.3238845872265
 30
0.0
 11
-9.768115942028984
 21
117.3238845872265
 31
0.0
  0
LINE
  5
1A2
330
BF
100
AcDbEntity
  8
0
  6
Continuous
 62
     3
370
    18
100
AcDbLine
 10
-9.768115942028984
 20
93.32388458722646
 30
0.0
 11
-97.76811594202897
 21
93.32388458722646
 31
0.0
  0
LINE
  5
1A3
330
BF
100
AcDbEntity
  8
0
  6
Continuous
 62
     3
370
    18
100
AcDbLine
 10
-99.76811594202897
 20
95.32388458722646
 30
0.0
 11
-99.76811594202897
 21
115.3238845872265
 31
0.0
  0
LINE
  5
1A4
330
BF
100
AcDbEntity
  8
0
  6
Continuous
 62
     3
370
    18
100
AcDbLine
 10
-7.768115942028984
 20
115.3238845872265
 30
0.0
 11
-7.768115942028984
 21
95.32388458722646
 31
0.0
  0
LINE
  5
1A5
330
BF
100
AcDbEntity
  8
0
  6
Continuous
 62
     3
370
    18
100
AcDbLine
 10
-97.76811594202897
 20
117.3238845872265
 30
0.0
 11
-99.76811594202897
 21
115.3238845872265
 31
0.0
  0
LINE
  5
1A6
330
BF
100
AcDbEntity
  8
0
  6
Continuous
 62
     3
370
    18
100
AcDbLine
 10
-9.768115942028984
 20
117.3238845872265
 30
0.0
 11
-7.768115942028984
 21
115.3238845872265
 31
0.0
  0
LINE
  5
1A7
330
BF
100
AcDbEntity
  8
0
  6
Continuous
 62
     3
370
    18
100
AcDbLine
 10
-99.76811594202897
 20
95.32388458722646
 30
0.0
 11
-97.76811594202897
 21
93.32388458722646
 31
0.0
  0
LINE
  5
1A8
330
BF
100
AcDbEntity
  8
0
  6
Continuous
 62
     3
370
    18
100
AcDbLine
 10
-9.768115942028984
 20
93.32388458722646
 30
0.0
 11
-7.768115942028984
 21
95.32388458722646
 31
0.0
  0
ENDBLK
  5
C1
330
BF
100
AcDbEntity
  8
0
100
AcDbBlockEnd
  0
BLOCK
  5
C3
330
C2
100
AcDbEntity
  8
0
100
AcDbBlockBegin
  2
DC_GROUP_COM-2117  PSLJC2-00S304A_6
 70
     0
 10
0.0
 20
0.0
 30
0.0
  3
DC_GROUP_COM-2117  PSLJC2-00S304A_6
  1

  0
CIRCLE
  5
1A9
330
C2
100
AcDbEntity
  8
0
  6
DASHED2
 62
     4
370
    13
100
AcDbCircle
 10
-90.76811594202897
 20
105.3238845872265
 30
0.0
 40
5.0
  0
LINE
  5
1AA
330
C2
100
AcDbEntity
  8
0
  6
CENTER
 62
     2
370
    13
100
AcDbLine
 10
-90.76811594202897
 20
112.3238845872265
 30
0.0
 11
-90.76811594202897
 21
98.32388458722646
 31
0.0
  0
LINE
  5
1AB
330
C2
100
AcDbEntity
  8
0
  6
CENTER
 62
     2
370
    13
100
AcDbLine
 10
-97.76811594202897
 20
105.3238845872265
 30
0.0
 11
-83.76811594202897
 21
105.3238845872265
 31
0.0
  0
ENDBLK
  5
C4
330
C2
100
AcDbEntity
  8
0
100
AcDbBlockEnd
  0
BLOCK
  5
C6
330
C5
100
AcDbEntity
  8
0
100
AcDbBlockBegin
  2
DC_GROUP_COM-2117  PSLJC2-00S304A_7
 70
     0
 10
0.0
 20
0.0
 30
0.0
  3
DC_GROUP_COM-2117  PSLJC2-00S304A_7
  1

  0
CIRCLE
  5
1AC
330
C5
100
AcDbEntity
  8
0
  6
DASHED2
 62
     4
370
    13
100
AcDbCircle
 10
-16.76811594202899
 20
105.3238845872265
 30
0.0
 40
5.0
  0
LINE
  5
1AD
330
C5
100
AcDbEntity
  8
0
  6
CENTER
 62
     2
370
    13
100
AcDbLine
 10
-16.76811594202899
 20
112.3238845872265
 30
0.0
 11
-16.76811594202899
 21
98.32388458722646
 31
0.0
  0
LINE
  5
1AE
330
C5
100
AcDbEntity
  8
0
  6
CENTER
 62
     2
370
    13
100
AcDbLine
 10
-23.76811594202899
 20
105.3238845872265
 30
0.0
 11
-9.768115942028992
 21
105.3238845872265
 31
0.0
  0
ENDBLK
  5
C7
330
C5
100
AcDbEntity
  8
0
100
AcDbBlockEnd
  0
BLOCK
  5
C9
330
C8
100
AcDbEntity
  8
0
100
AcDbBlockBegin
  2
DC_GROUP_COM-2117  PSLJC2-00S304A_8
 70
     0
 10
0.0
 20
0.0
 30
0.0
  3
DC_GROUP_COM-2117  PSLJC2-00S304A_8
  1

  0
CIRCLE
  5
1AF
330
C8
100
AcDbEntity
  8
0
  6
Continuous
 62
     4
370
    13
100
AcDbCircle
 10
-90.76811594202897
 20
105.3238845872265
 30
0.0
 40
5.700000000000003
  0
CIRCLE
  5
1B0
330
C8
100
AcDbEntity
  8
0
  6
Continuous
 62
     4
370
    13
100
AcDbCircle
 10
-90.76811594202897
 20
105.3238845872265
 30
0.0
 40
6.5
  0
LINE
  5
1B1
330
C8
100
AcDbEntity
  8
0
  6
Continuous
 62
     4
370
    13
100
AcDbLine
 10
-94.23221755716672
 20
105.3238845872265
 30
0.0
 11
-92.50016674959785
 21
102.3238845872265
 31
0.0
  0
LINE
  5
1B2
330
C8
100
AcDbEntity
  8
0
  6
Continuous
 62
     4
370
    13
100
AcDbLine
 10
-92.50016674959785
 20
102.3238845872265
 30
0.0
 11
-89.03606513446009
 21
102.3238845872265
 31
0.0
  0
LINE
  5
1B3
330
C8
100
AcDbEntity
  8
0
  6
Continuous
 62
     4
370
    13
100
AcDbLine
 10
-89.03606513446009
 20
102.3238845872265
 30
0.0
 11
-87.30401432689122
 21
105.3238845872265
 31
0.0
  0
LINE
  5
1B4
330
C8
100
AcDbEntity
  8
0
  6
Continuous
 62
     4
370
    13
100
AcDbLine
 10
-87.30401432689122
 20
105.3238845872265
 30
0.0
 11
-89.03606513446009
 21
108.3238845872265
 31
0.0
  0
LINE
  5
1B5
330
C8
100
AcDbEntity
  8
0
  6
Continuous
 62
     4
370
    13
100
AcDbLine
 10
-89.03606513446009
 20
108.3238845872265
 30
0.0
 11
-92.50016674959785
 21
108.3238845872265
 31
0.0
  0
LINE
  5
1B6
330
C8
100
AcDbEntity
  8
0
  6
Continuous
 62
     4
370
    13
100
AcDbLine
 10
-92.50016674959785
 20
108.3238845872265
 30
0.0
 11
-94.23221755716672
 21
105.3238845872265
 31
0.0
  0
CIRCLE
  5
1B7
330
C8
100
AcDbEntity
  8
0
  6
Continuous
 62
     4
370
    13
100
AcDbCircle
 10
-90.76811594202897
 20
105.3238845872265
 30
0.0
 40
3.46410161513775
  0
LINE
  5
1B8
330
C8
100
AcDbEntity
  8
0
  6
CENTER
 62
     2
370
    13
100
AcDbLine
 10
-98.56811594202897
 20
105.3238845872265
 30
0.0
 11
-83.66201294373575
 21
105.3238845872265
 31
0.0
  0
LINE
  5
1B9
330
C8
100
AcDbEntity
  8
0
  6
CENTER
 62
     2
370
    13
100
AcDbLine
 10
-90.76811594202897
 20
97.52388458722646
 30
0.0
 11
-90.76811594202897
 21
113.1238845872265
 31
0.0
  0
ENDBLK
  5
CA
330
C8
100
AcDbEntity
  8
0
100
AcDbBlockEnd
  0
BLOCK
  5
CC
330
CB
100
AcDbEntity
  8
0
100
AcDbBlockBegin
  2
DC_GROUP_COM-2117  PSLJC2-00S304A_9
 70
     0
 10
0.0
 20
0.0
 30
0.0
  3
DC_GROUP_COM-2117  PSLJC2-00S304A_9
  1

  0
CIRCLE
  5
1BA
330
CB
100
AcDbEntity
  8
0
  6
Continuous
 62
     4
370
    13
100
AcDbCircle
 10
-16.76811594202899
 20
105.3238845872265
 30
0.0
 40
5.699999999999999
  0
CIRCLE
  5
1BB
330
CB
100
AcDbEntity
  8
0
  6
Continuous
 62
     4
370
    13
100
AcDbCircle
 10
-16.76811594202899
 20
105.3238845872265
 30
0.0
 40
6.5
  0
LINE
  5
1BC
330
CB
100
AcDbEntity
  8
0
  6
Continuous
 62
     4
370
    13
100
AcDbLine
 10
-20.23221755716675
 20
105.3238845872265
 30
0.0
 11
-18.50016674959787
 21
102.3238845872265
 31
0.0
  0
LINE
  5
1BD
330
CB
100
AcDbEntity
  8
0
  6
Continuous
 62
     4
370
    13
100
AcDbLine
 10
-18.50016674959787
 20
102.3238845872265
 30
0.0
 11
-15.03606513446011
 21
102.3238845872265
 31
0.0
  0
LINE
  5
1BE
330
CB
100
AcDbEntity
  8
0
  6
Continuous
 62
     4
370
    13
100
AcDbLine
 10
-15.03606513446011
 20
102.3238845872265
 30
0.0
 11
-13.30401432689124
 21
105.3238845872265
 31
0.0
  0
LINE
  5
1BF
330
CB
100
AcDbEntity
  8
0
  6
Continuous
 62
     4
370
    13
100
AcDbLine
 10
-13.30401432689124
 20
105.3238845872265
 30
0.0
 11
-15.03606513446011
 21
108.3238845872265
 31
0.0
  0
LINE
  5
1C0
330
CB
100
AcDbEntity
  8
0
  6
Continuous
 62
     4
370
    13
100
AcDbLine
 10
-15.03606513446011
 20
108.3238845872265
 30
0.0
 11
-18.50016674959787
 21
108.3238845872265
 31
0.0
  0
LINE
  5
1C1
330
CB
100
AcDbEntity
  8
0
  6
Continuous
 62
     4
370
    13
100
AcDbLine
 10
-18.50016674959787
 20
108.3238845872265
 30
0.0
 11
-20.23221755716675
 21
105.3238845872265
 31
0.0
  0
CIRCLE
  5
1C2
330
CB
100
AcDbEntity
  8
0
  6
Continuous
 62
     4
370
    13
100
AcDbCircle
 10
-16.76811594202899
 20
105.3238845872265
 30
0.0
 40
3.464101615137757
  0
LINE
  5
1C3
330
CB
100
AcDbEntity
  8
0
  6
CENTER
 62
     2
370
    13
100
AcDbLine
 10
-23.8742189403222
 20
105.3238845872265
 30
0.0
 11
-8.96811594202899
 21
105.3238845872265
 31
0.0
  0
LINE
  5
1C4
330
CB
100
AcDbEntity
  8
0
  6
CENTER
 62
     2
370
    13
100
AcDbLine
 10
-16.76811594202899
 20
97.52388458722646
 30
0.0
 11
-16.76811594202899
 21
113.1238845872265
 31
0.0
  0
ENDBLK
  5
CD
330
CB
100
AcDbEntity
  8
0
100
AcDbBlockEnd
  0
BLOCK
  5
CF
330
CE
100
AcDbEntity
  8
0
100
AcDbBlockBegin
  2
DC_GROUP_COM-2117  PSLJC2-00S304A_10
 70
     0
 10
0.0
 20
0.0
 30
0.0
  3
DC_GROUP_COM-2117  PSLJC2-00S304A_10
  1

  0
LINE
  5
1C5
330
CE
100
AcDbEntity
  8
0
  6
Continuous
 62
     2
370
    13
100
AcDbLine
 10
-93.64756484506542
 20
51.47484856357876
 30
0.0
 11
-114.1403184682538
 21
69.44393068918262
 31
0.0
  0
INSERT
  5
1CC
330
CE
100
AcDbEntity
  8
0
 62
     2
100
AcDbBlockReference
  2
_Open30
 10
-93.64756484506542
 20
51.47484856357876
 30
0.0
 41
3.000002807615286
 42
2.999989368223643
 50
318.7540784752783
  0
LINE
  5
1CD
330
CE
100
AcDbEntity
  8
0
  6
Continuous
 62
     2
370
    13
100
AcDbLine
 10
-114.1403184682538
 20
69.44393068918262
 30
0.0
 11
-181.6403184682538
 21
69.44393068918262
 31
0.0
  0
TEXT
  5
1CF
330
CE
100
AcDbEntity
  8
0
 62
     4
100
AcDbText
 10
-181.6403184673773
 20
69.44393068918262
 30
0.0
 40
4.5
  1
ＣＳボルト　Ｍ８ｘ２５　　２本
 41
1.179775280898877
  7
dcStyle0
 72
     5
 11
-114.1403184673773
 21
69.44393068918262
 31
0.0
100
AcDbText
  0
ENDBLK
  5
D0
330
CE
100
AcDbEntity
  8
0
100
AcDbBlockEnd
  0
BLOCK
  5
D2
330
D1
100
AcDbEntity
  8
0
100
AcDbBlockBegin
  2
DC_GROUP_COM-2117  PSLJC2-00S304A_11
 70
     0
 10
0.0
 20
0.0
 30
0.0
  3
DC_GROUP_COM-2117  PSLJC2-00S304A_11
  1

  0
LINE
  5
1D0
330
D1
100
AcDbEntity
  8
0
  6
Continuous
 62
     2
370
    13
100
AcDbLine
 10
-96.5009512723524
 20
36.76625438045577
 30
0.0
 11
-118.167617939019
 21
20.37011911475527
 31
0.0
  0
INSERT
  5
1D1
330
D1
100
AcDbEntity
  8
0
 62
     2
100
AcDbBlockReference
  2
_Open30
 10
-96.5009512723524
 20
36.76625438045577
 30
0.0
 41
3.000002807615286
 42
2.999989368223643
 50
37.116421596458
  0
LINE
  5
1D2
330
D1
100
AcDbEntity
  8
0
  6
Continuous
 62
     2
370
    13
100
AcDbLine
 10
-118.167617939019
 20
20.37011911475527
 30
0.0
 11
-192.417617939019
 21
20.37011911475527
 31
0.0
  0
TEXT
  5
1D3
330
D1
100
AcDbEntity
  8
0
 62
     4
100
AcDbText
 10
-192.417617939019
 20
20.37011911475527
 30
0.0
 40
4.5
  1
ビニールパイプ　Φ１４ｘ１０　1個
 41
1.136065573770492
  7
dcStyle0
 72
     5
 11
-118.167617939019
 21
20.37011911475527
 31
0.0
100
AcDbText
  0
ENDBLK
  5
D3
330
D1
100
AcDbEntity
  8
0
100
AcDbBlockEnd
  0
BLOCK
  5
D5
330
D4
100
AcDbEntity
  8
0
100
AcDbBlockBegin
  2
*D12
 70
     1
 10
0.0
 20
0.0
 30
0.0
  3
*D12
  1

  0
LINE
  5
1D4
330
D4
100
AcDbEntity
  8
0
  6
Continuous
 62
     2
370
    13
100
AcDbLine
 10
-99.76811594202897
 20
82.5
 30
0.0
 11
-7.768115942028984
 21
82.5
 31
0.0
  0
INSERT
  5
1D5
330
D4
100
AcDbEntity
  8
0
 62
     2
100
AcDbBlockReference
  2
_Open30
 10
-99.76811594202897
 20
82.5
 30
0.0
 41
3.000002807615286
 42
2.999989368223643
 50
180.0
  0
INSERT
  5
1D6
330
D4
100
AcDbEntity
  8
0
 62
     2
100
AcDbBlockReference
  2
_Open30
 10
-7.768115942028984
 20
82.5
 30
0.0
 41
3.000002807615286
 42
2.999989368223643
 50
360.0
  0
LINE
  5
1D7
330
D4
100
AcDbEntity
  8
0
  6
Continuous
 62
     2
370
    13
100
AcDbLine
 10
-99.76811594202897
 20
94.32388458722646
 30
0.0
 11
-99.76811594202897
 21
81.5
 31
0.0
  0
LINE
  5
1D8
330
D4
100
AcDbEntity
  8
0
  6
Continuous
 62
     2
370
    13
100
AcDbLine
 10
-7.768115942028984
 20
94.32388458722646
 30
0.0
 11
-7.768115942028984
 21
81.5
 31
0.0
  0
MTEXT
  5
1D9
330
D4
100
AcDbEntity
  8
0
 62
     4
100
AcDbMText
 10
-53.76811594202898
 20
83.5
 30
0.0
 40
4.5
 41
0.0
 46
0.0
 71
     8
 72
     1
  1
\T1.00;\W0.5000;92
  7
dcStyle0
 73
     1
 44
1.0
  0
ENDBLK
  5
D6
330
D4
100
AcDbEntity
  8
0
100
AcDbBlockEnd
  0
BLOCK
  5
D8
330
D7
100
AcDbEntity
  8
0
100
AcDbBlockBegin
  2
*D13
 70
     1
 10
0.0
 20
0.0
 30
0.0
  3
*D13
  1

  0
LINE
  5
1DA
330
D7
100
AcDbEntity
  8
0
  6
Continuous
 62
     2
370
    13
100
AcDbLine
 10
-94.76811594202897
 20
10.03957086173627
 30
0.0
 11
-86.76811594202897
 21
10.03957086173627
 31
0.0
  0
LINE
  5
1DB
330
D7
100
AcDbEntity
  8
0
  6
Continuous
 62
     2
370
    13
100
AcDbLine
 10
-94.76811594202897
 20
19.79683144712985
 30
0.0
 11
-94.76811594202897
 21
9.039570861736266
 31
0.0
  0
LINE
  5
1DC
330
D7
100
AcDbEntity
  8
0
  6
Continuous
 62
     2
370
    13
100
AcDbLine
 10
-86.76811594202897
 20
19.79683144712985
 30
0.0
 11
-86.76811594202897
 21
9.039570861736266
 31
0.0
  0
LINE
  5
1DD
330
D7
100
AcDbEntity
  8
0
  6
Continuous
 62
     2
370
    13
100
AcDbLine
 10
-104.7748323771342
 20
10.03957086173627
 30
0.0
 11
-94.76811594202897
 21
10.03957086173627
 31
0.0
  0
INSERT
  5
1DE
330
D7
100
AcDbEntity
  8
0
 62
     2
100
AcDbBlockReference
  2
_Open30
 10
-94.76811594202897
 20
10.03957086173627
 30
0.0
 41
3.000002807615286
 42
2.999989368223643
 50
360.0
  0
LINE
  5
1DF
330
D7
100
AcDbEntity
  8
0
  6
Continuous
 62
     2
370
    13
100
AcDbLine
 10
-81.76811594202897
 20
10.03957086173627
 30
0.0
 11
-86.76811594202897
 21
10.03957086173627
 31
0.0
  0
INSERT
  5
1E0
330
D7
100
AcDbEntity
  8
0
 62
     2
100
AcDbBlockReference
  2
_Open30
 10
-86.76811594202897
 20
10.03957086173627
 30
0.0
 41
3.000002807615286
 42
2.999989368223643
 50
180.0
  0
MTEXT
  5
1E1
330
D7
100
AcDbEntity
  8
0
 62
     4
100
AcDbMText
 10
-99.2748323771342
 20
11.03957086173627
 30
0.0
 40
4.5
 41
0.0
 46
0.0
 71
     9
 72
     1
  1
\T1.00;\W0.5000;M8
  7
dcStyle0
 73
     1
 44
1.0
  0
ENDBLK
  5
D9
330
D7
100
AcDbEntity
  8
0
100
AcDbBlockEnd
  0
BLOCK
  5
DB
330
DA
100
AcDbEntity
  8
0
100
AcDbBlockBegin
  2
*D14
 70
     1
 10
0.0
 20
0.0
 30
0.0
  3
*D14
  1

  0
LINE
  5
1E2
330
DA
100
AcDbEntity
  8
0
  6
Continuous
 62
     2
370
    13
100
AcDbLine
 10
-107.8928423308218
 20
19.59683144712986
 30
0.0
 11
-107.8928423308218
 21
44.59683144712986
 31
0.0
  0
INSERT
  5
1E3
330
DA
100
AcDbEntity
  8
0
 62
     2
100
AcDbBlockReference
  2
_Open30
 10
-107.8928423308218
 20
19.59683144712986
 30
0.0
 41
3.000002807615286
 42
2.999989368223643
 50
270.0
  0
INSERT
  5
1E4
330
DA
100
AcDbEntity
  8
0
 62
     2
100
AcDbBlockReference
  2
_Open30
 10
-107.8928423308218
 20
44.59683144712986
 30
0.0
 41
3.000002807615286
 42
2.999989368223643
 50
90.0
  0
LINE
  5
1E5
330
DA
100
AcDbEntity
  8
0
  6
Continuous
 62
     2
370
    13
100
AcDbLine
 10
-94.56811594202898
 20
19.59683144712986
 30
0.0
 11
-108.8928423308218
 21
19.59683144712986
 31
0.0
  0
LINE
  5
1E6
330
DA
100
AcDbEntity
  8
0
  6
Continuous
 62
     2
370
    13
100
AcDbLine
 10
-100.768115942029
 20
44.59683144712986
 30
0.0
 11
-108.8928423308218
 21
44.59683144712986
 31
0.0
  0
MTEXT
  5
1E7
330
DA
100
AcDbEntity
  8
0
 62
     4
100
AcDbMText
 10
-108.8928423308218
 20
32.09683144712986
 30
0.0
 40
4.5
 41
0.0
 46
0.0
 71
     8
 72
     1
  1
\T1.00;\W0.5000;25
  7
dcStyle0
 11
6.123233995736766E-17
 21
1.0
 31
0.0
 73
     1
 44
1.0
  0
ENDBLK
  5
DC
330
DA
100
AcDbEntity
  8
0
100
AcDbBlockEnd
  0
BLOCK
  5
DE
330
DD
100
AcDbEntity
  8
0
100
AcDbBlockBegin
  2
*D15
 70
     1
 10
0.0
 20
0.0
 30
0.0
  3
*D15
  1

  0
LINE
  5
1E8
330
DD
100
AcDbEntity
  8
0
  6
Continuous
 62
     2
370
    13
100
AcDbLine
 10
13.7391304347826
 20
93.32388458722646
 30
0.0
 11
13.7391304347826
 21
117.3238845872265
 31
0.0
  0
INSERT
  5
1E9
330
DD
100
AcDbEntity
  8
0
 62
     2
100
AcDbBlockReference
  2
_Open30
 10
13.7391304347826
 20
93.32388458722646
 30
0.0
 41
3.000002807615286
 42
2.999989368223643
 50
270.0
  0
INSERT
  5
1EA
330
DD
100
AcDbEntity
  8
0
 62
     2
100
AcDbBlockReference
  2
_Open30
 10
13.7391304347826
 20
117.3238845872265
 30
0.0
 41
3.000002807615286
 42
2.999989368223643
 50
90.0
  0
LINE
  5
1EB
330
DD
100
AcDbEntity
  8
0
  6
Continuous
 62
     2
370
    13
100
AcDbLine
 10
-8.768115942028984
 20
93.32388458722646
 30
0.0
 11
14.7391304347826
 21
93.32388458722646
 31
0.0
  0
LINE
  5
1EC
330
DD
100
AcDbEntity
  8
0
  6
Continuous
 62
     2
370
    13
100
AcDbLine
 10
-8.768115942028984
 20
117.3238845872265
 30
0.0
 11
14.7391304347826
 21
117.3238845872265
 31
0.0
  0
MTEXT
  5
1ED
330
DD
100
AcDbEntity
  8
0
 62
     4
100
AcDbMText
 10
12.7391304347826
 20
105.3238845872265
 30
0.0
 40
4.5
 41
0.0
 46
0.0
 71
     8
 72
     1
  1
\T1.00;\W0.5000;24
  7
dcStyle0
 11
6.123233995736766E-17
 21
1.0
 31
0.0
 73
     1
 44
1.0
  0
ENDBLK
  5
DF
330
DD
100
AcDbEntity
  8
0
100
AcDbBlockEnd
  0
BLOCK
  5
E1
330
E0
100
AcDbEntity
  8
0
100
AcDbBlockBegin
  2
DC_IMAGEDIMGROUP_1
 70
     0
 10
0.0
 20
0.0
 30
0.0
  3
DC_IMAGEDIMGROUP_1
  1

  0
LINE
  5
1EE
330
E0
100
AcDbEntity
  8
0
  6
Continuous
 62
     2
370
    13
100
AcDbLine
 10
0.1432340268657413
 20
85.41253461833176
 30
0.0
 11
-8.768115942028984
 21
94.32388458722646
 31
0.0
  0
INSERT
  5
1EF
330
E0
100
AcDbEntity
  8
0
 62
     2
100
AcDbBlockReference
  2
_Open30
 10
-8.768115942028984
 20
94.32388458722646
 30
0.0
 41
3.000002807615286
 42
2.999989368223643
 50
135.0000000000001
  0
LINE
  5
1F0
330
E0
100
AcDbEntity
  8
0
  6
Continuous
 62
     2
370
    13
100
AcDbLine
 10
11.14323402686574
 20
85.41253461833176
 30
0.0
 11
0.1432340268657413
 21
85.41253461833176
 31
0.0
  0
MTEXT
  5
1F1
330
E0
100
AcDbEntity
  8
0
 62
     4
100
AcDbMText
 10
1.143234026865741
 20
86.41253461833176
 30
0.0
 40
4.5
 41
0.0
 46
0.0
 71
     7
 72
     1
  1
\T1.00;\W0.5000;4-C2
  7
dcStyle0
 73
     1
 44
1.0
  0
ENDBLK
  5
E2
330
E0
100
AcDbEntity
  8
0
100
AcDbBlockEnd
  0
BLOCK
  5
E4
330
E3
100
AcDbEntity
  8
0
100
AcDbBlockBegin
  2
*D17
 70
     1
 10
0.0
 20
0.0
 30
0.0
  3
*D17
  1

  0
LINE
  5
1F2
330
E3
100
AcDbEntity
  8
0
  6
Continuous
 62
     2
370
    13
100
AcDbLine
 10
-14.10869565217391
 20
-35.90316855287014
 30
0.0
 11
-14.10869565217391
 21
9.096831447129858
 31
0.0
  0
INSERT
  5
1F3
330
E3
100
AcDbEntity
  8
0
 62
     2
100
AcDbBlockReference
  2
_Open30
 10
-14.10869565217391
 20
-35.90316855287014
 30
0.0
 41
3.000002807615286
 42
2.999989368223643
 50
270.0
  0
INSERT
  5
1F4
330
E3
100
AcDbEntity
  8
0
 62
     2
100
AcDbBlockReference
  2
_Open30
 10
-14.10869565217391
 20
9.096831447129858
 30
0.0
 41
3.000002807615286
 42
2.999989368223643
 50
90.0
  0
LINE
  5
1F5
330
E3
100
AcDbEntity
  8
0
  6
Continuous
 62
     2
370
    13
100
AcDbLine
 10
-42.26811594202898
 20
-35.90316855287014
 30
0.0
 11
-13.10869565217391
 21
-35.90316855287014
 31
0.0
  0
LINE
  5
1F6
330
E3
100
AcDbEntity
  8
0
  6
Continuous
 62
     2
370
    13
100
AcDbLine
 10
-46.76811594202898
 20
9.096831447129858
 30
0.0
 11
-13.10869565217391
 21
9.096831447129858
 31
0.0
  0
MTEXT
  5
1F7
330
E3
100
AcDbEntity
  8
0
 62
     4
100
AcDbMText
 10
-15.10869565217391
 20
-13.40316855287014
 30
0.0
 40
4.5
 41
0.0
 46
0.0
 71
     8
 72
     1
  1
\T1.00;\W0.5000;45
  7
dcStyle0
 11
6.123233995736766E-17
 21
1.0
 31
0.0
 73
     1
 44
1.0
  0
ENDBLK
  5
E5
330
E3
100
AcDbEntity
  8
0
100
AcDbBlockEnd
  0
BLOCK
  5
E7
330
E6
100
AcDbEntity
  8
0
100
AcDbBlockBegin
  2
DC_GROUP_COM-2117  PSLJC2-00S304A_12
 70
     0
 10
0.0
 20
0.0
 30
0.0
  3
DC_GROUP_COM-2117  PSLJC2-00S304A_12
  1

  0
LINE
  5
1F8
330
E6
100
AcDbEntity
  8
ZUWAKU
  6
Continuous
 62
     4
370
    18
100
AcDbLine
 10
100.0
 20
-88.506168
 30
0.0
 11
100.0
 21
-138.5
 31
0.0
  0
LINE
  5
1F9
330
E6
100
AcDbEntity
  8
ZUWAKU
  6
Continuous
 62
     4
370
    18
100
AcDbLine
 10
200.0
 20
-106.506168
 30
0.0
 11
100.0
 21
-106.506168
 31
0.0
  0
LINE
  5
1FA
330
E6
100
AcDbEntity
  8
ZUWAKU
  6
Continuous
 62
     4
370
    18
100
AcDbLine
 10
200.0
 20
-88.506168
 30
0.0
 11
100.0
 21
-88.506168
 31
0.0
  0
LINE
  5
1FB
330
E6
100
AcDbEntity
  8
ZUWAKU
  6
Continuous
 62
     7
370
    18
100
AcDbLine
 10
108.0
 20
-106.506168
 30
0.0
 11
108.0
 21
-138.5
 31
0.0
  0
LINE
  5
1FC
330
E6
100
AcDbEntity
  8
ZUWAKU
  6
Continuous
 62
     7
370
    18
100
AcDbLine
 10
200.0
 20
-129.5
 30
0.0
 11
100.0
 21
-129.5
 31
0.0
  0
LINE
  5
1FD
330
E6
100
AcDbEntity
  8
ZUWAKU
  6
Continuous
 62
     7
370
    18
100
AcDbLine
 10
200.0
 20
-115.5
 30
0.0
 11
100.0
 21
-115.5
 31
0.0
  0
LINE
  5
1FE
330
E6
100
AcDbEntity
  8
ZUWAKU
  6
Continuous
 62
     7
370
    18
100
AcDbLine
 10
200.0
 20
-100.506168
 30
0.0
 11
145.0
 21
-100.506168
 31
0.0
  0
LINE
  5
1FF
330
E6
100
AcDbEntity
  8
ZUWAKU
  6
Continuous
 62
     7
370
    18
100
AcDbLine
 10
200.0
 20
-94.506168
 30
0.0
 11
100.0
 21
-94.506168
 31
0.0
  0
LINE
  5
200
330
E6
100
AcDbEntity
  8
ZUWAKU
  6
Continuous
 62
     7
370
    18
100
AcDbLine
 10
115.0
 20
-88.506168
 30
0.0
 11
115.0
 21
-106.506168
 31
0.0
  0
LINE
  5
201
330
E6
100
AcDbEntity
  8
ZUWAKU
  6
Continuous
 62
     7
370
    18
100
AcDbLine
 10
130.0
 20
-88.506168
 30
0.0
 11
130.0
 21
-106.506168
 31
0.0
  0
LINE
  5
202
330
E6
100
AcDbEntity
  8
ZUWAKU
  6
Continuous
 62
     7
370
    18
100
AcDbLine
 10
145.0
 20
-88.506168
 30
0.0
 11
145.0
 21
-106.506168
 31
0.0
  0
LINE
  5
203
330
E6
100
AcDbEntity
  8
ZUWAKU
  6
Continuous
 62
     7
370
    18
100
AcDbLine
 10
165.0
 20
-88.506168
 30
0.0
 11
165.0
 21
-106.506168
 31
0.0
  0
TEXT
  5
204
330
E6
100
AcDbEntity
  8
ZUWAKU
 62
     3
100
AcDbText
 10
104.5
 20
-93.50616500000001
 30
0.0
 40
4.0
  1
承認
 41
1.145454545454546
  7
dcStyle0
 72
     5
 11
111.7
 21
-93.50616500000001
 31
0.0
100
AcDbText
  0
TEXT
  5
205
330
E6
100
AcDbEntity
  8
ZUWAKU
 62
     3
100
AcDbText
 10
119.5
 20
-93.50616500000001
 30
0.0
 40
4.0
  1
検図
 41
1.145454545454546
  7
dcStyle0
 72
     5
 11
126.7
 21
-93.50616500000001
 31
0.0
100
AcDbText
  0
TEXT
  5
206
330
E6
100
AcDbEntity
  8
ZUWAKU
 62
     3
100
AcDbText
 10
134.5
 20
-93.50616500000001
 30
0.0
 40
4.0
  1
作成
 41
1.145454545454544
  7
dcStyle0
 72
     5
 11
141.7
 21
-93.50616500000001
 31
0.0
100
AcDbText
  0
TEXT
  5
207
330
E6
100
AcDbEntity
  8
ZUWAKU
 62
     3
100
AcDbText
 10
149.0
 20
-93.50616500000001
 30
0.0
 40
4.0
  1
作成日付
 41
1.095652173913044
  7
dcStyle0
 72
     5
 11
163.4
 21
-93.50616500000001
 31
0.0
100
AcDbText
  0
TEXT
  5
208
330
E6
100
AcDbEntity
  8
ZUWAKU
 62
     3
100
AcDbText
 10
149.0
 20
-99.506168
 30
0.0
 40
4.0
  1
更新日付
 41
1.095652173913044
  7
dcStyle0
 72
     5
 11
163.4
 21
-99.506168
 31
0.0
100
AcDbText
  0
TEXT
  5
209
330
E6
100
AcDbEntity
  8
ZUWAKU
 62
     3
100
AcDbText
 10
152.0
 20
-105.506168
 30
0.0
 40
4.0
  1
尺度
 41
1.145454545454544
  7
dcStyle0
 72
     5
 11
159.2
 21
-105.506168
 31
0.0
100
AcDbText
  0
TEXT
  5
20A
330
E6
100
AcDbEntity
  8
ZUWAKU
 62
     3
100
AcDbText
 10
100.2073339323979
 20
-113.0
 30
0.0
 40
4.0
  1
名称
 41
1.145454545454546
  7
dcStyle0
 72
     5
 11
107.4073339323979
 21
-113.0
 31
0.0
100
AcDbText
  0
TEXT
  5
20B
330
E6
100
AcDbEntity
  8
ZUWAKU
 62
     3
100
AcDbText
 10
100.2073339323979
 20
-125.0
 30
0.0
 40
4.0
  1
材質
 41
1.145454545454546
  7
dcStyle0
 72
     5
 11
107.4073339323979
 21
-125.0
 31
0.0
100
AcDbText
  0
TEXT
  5
20C
330
E6
100
AcDbEntity
  8
ZUWAKU
 62
     3
100
AcDbText
 10
100.2073339323979
 20
-136.0
 30
0.0
 40
4.0
  1
図番
 41
1.145454545454546
  7
dcStyle0
 72
     5
 11
107.4073339323979
 21
-136.0
 31
0.0
100
AcDbText
  0
ENDBLK
  5
E8
330
E6
100
AcDbEntity
  8
0
100
AcDbBlockEnd
  0
BLOCK
  5
EA
330
E9
100
AcDbEntity
  8
0
100
AcDbBlockBegin
  2
DC_GROUP_COM-2117  PSLJC2-00S304A_13
 70
     0
 10
0.0
 20
0.0
 30
0.0
  3
DC_GROUP_COM-2117  PSLJC2-00S304A_13
  1

  0
CIRCLE
  5
20D
330
E9
100
AcDbEntity
  8
ZUWAKU
  6
Continuous
 62
     2
370
    13
100
AcDbCircle
 10
120.8208420959007
 20
132.0007204150656
 30
0.0
 40
1.0
  0
LINE
  5
20E
330
E9
100
AcDbEntity
  8
ZUWAKU
  6
Continuous
 62
     2
370
    13
100
AcDbLine
 10
120.8208420959007
 20
130.0007204150656
 30
0.0
 11
119.0887912883318
 21
133.0007204150656
 31
0.0
  0
LINE
  5
20F
330
E9
100
AcDbEntity
  8
ZUWAKU
  6
Continuous
 62
     2
370
    13
100
AcDbLine
 10
120.8208420959007
 20
130.0007204150656
 30
0.0
 11
124.862293980228
 21
137.0007204150656
 31
0.0
  0
ENDBLK
  5
EB
330
E9
100
AcDbEntity
  8
0
100
AcDbBlockEnd
  0
BLOCK
  5
ED
330
EC
100
AcDbEntity
  8
0
100
AcDbBlockBegin
  2
DC_GROUP_COM-2117  PSLJC2-00S304A_14
 70
     0
 10
0.0
 20
0.0
 30
0.0
  3
DC_GROUP_COM-2117  PSLJC2-00S304A_14
  1

  0
LINE
  5
210
330
EC
100
AcDbEntity
  8
ZUWAKU
  6
Continuous
 62
     2
370
    13
100
AcDbLine
 10
139.0943447877969
 20
130.0007204150656
 30
0.0
 11
137.3622939802281
 21
133.0007204150656
 31
0.0
  0
LINE
  5
211
330
EC
100
AcDbEntity
  8
ZUWAKU
  6
Continuous
 62
     2
370
    13
100
AcDbLine
 10
139.0943447877969
 20
130.0007204150656
 30
0.0
 11
143.1357966721243
 21
137.0007204150656
 31
0.0
  0
LINE
  5
212
330
EC
100
AcDbEntity
  8
ZUWAKU
  6
Continuous
 62
     2
370
    13
100
AcDbLine
 10
143.1357966721243
 20
137.0007204150656
 30
0.0
 11
152.1357966721243
 21
137.0007204150656
 31
0.0
  0
LINE
  5
213
330
EC
100
AcDbEntity
  8
ZUWAKU
  6
Continuous
 62
     2
370
    13
100
AcDbLine
 10
137.3622939802281
 20
133.0007204150656
 30
0.0
 11
140.8263955953658
 21
133.0007204150656
 31
0.0
  0
TEXT
  5
214
330
EC
100
AcDbEntity
  8
ZUWAKU
 62
     7
100
AcDbText
 10
143.1835495326201
 20
132.5007204150656
 30
0.0
 40
3.5
  1
Ra
 41
0.5833333333333334
  7
dcStyle0
 72
     5
 11
146.6835495326201
 21
132.5007204150656
 31
0.0
100
AcDbText
  0
TEXT
  5
215
330
EC
100
AcDbEntity
  8
ZUWAKU
 62
     7
100
AcDbText
 10
146.6835495326201
 20
132.5007204150656
 30
0.0
 40
3.5
  1
25
 41
0.5675675675675677
  7
dcStyle0
 72
     5
 11
150.1835495326201
 21
132.5007204150656
 31
0.0
100
AcDbText
  0
ENDBLK
  5
EE
330
EC
100
AcDbEntity
  8
0
100
AcDbBlockEnd
  0
BLOCK
  5
F0
330
EF
100
AcDbEntity
  8
0
100
AcDbBlockBegin
  2
DC_GROUP_COM-2117  PSLJC2-00S304A_15
 70
     0
 10
0.0
 20
0.0
 30
0.0
  3
DC_GROUP_COM-2117  PSLJC2-00S304A_15
  1

  0
LINE
  5
216
330
EF
100
AcDbEntity
  8
ZUWAKU
  6
Continuous
 62
     2
370
    13
100
AcDbLine
 10
160.8678474796932
 20
130.0007204150656
 30
0.0
 11
159.1357966721243
 21
133.0007204150656
 31
0.0
  0
LINE
  5
217
330
EF
100
AcDbEntity
  8
ZUWAKU
  6
Continuous
 62
     2
370
    13
100
AcDbLine
 10
160.8678474796932
 20
130.0007204150656
 30
0.0
 11
164.9092993640205
 21
137.0007204150656
 31
0.0
  0
LINE
  5
218
330
EF
100
AcDbEntity
  8
ZUWAKU
  6
Continuous
 62
     2
370
    13
100
AcDbLine
 10
164.9092993640205
 20
137.0007204150656
 30
0.0
 11
172.1592993640205
 21
137.0007204150656
 31
0.0
  0
LINE
  5
219
330
EF
100
AcDbEntity
  8
ZUWAKU
  6
Continuous
 62
     2
370
    13
100
AcDbLine
 10
159.1357966721243
 20
133.0007204150656
 30
0.0
 11
162.5998982872621
 21
133.0007204150656
 31
0.0
  0
TEXT
  5
21A
330
EF
100
AcDbEntity
  8
ZUWAKU
 62
     7
100
AcDbText
 10
163.8488335544831
 20
132.5007204150656
 30
0.0
 40
3.5
  1
Ra6.3
 41
0.603448275862069
  7
dcStyle0
 72
     5
 11
172.5988335544831
 21
132.5007204150656
 31
0.0
100
AcDbText
  0
ENDBLK
  5
F1
330
EF
100
AcDbEntity
  8
0
100
AcDbBlockEnd
  0
BLOCK
  5
F3
330
F2
100
AcDbEntity
  8
0
100
AcDbBlockBegin
  2
DC_GROUP_COM-2117  PSLJC2-00S304A_16
 70
     0
 10
0.0
 20
0.0
 30
0.0
  3
DC_GROUP_COM-2117  PSLJC2-00S304A_16
  1

  0
LINE
  5
21B
330
F2
100
AcDbEntity
  8
ZUWAKU
  6
Continuous
 62
     2
370
    13
100
AcDbLine
 10
180.8913501715894
 20
130.0007204150656
 30
0.0
 11
179.1592993640206
 21
133.0007204150656
 31
0.0
  0
LINE
  5
21C
330
F2
100
AcDbEntity
  8
ZUWAKU
  6
Continuous
 62
     2
370
    13
100
AcDbLine
 10
180.8913501715894
 20
130.0007204150656
 30
0.0
 11
184.9328020559168
 21
137.0007204150656
 31
0.0
  0
LINE
  5
21D
330
F2
100
AcDbEntity
  8
ZUWAKU
  6
Continuous
 62
     2
370
    13
100
AcDbLine
 10
184.9328020559168
 20
137.0007204150656
 30
0.0
 11
192.1828020559168
 21
137.0007204150656
 31
0.0
  0
LINE
  5
21E
330
F2
100
AcDbEntity
  8
ZUWAKU
  6
Continuous
 62
     2
370
    13
100
AcDbLine
 10
179.1592993640206
 20
133.0007204150656
 30
0.0
 11
182.6234009791583
 21
133.0007204150656
 31
0.0
  0
TEXT
  5
21F
330
F2
100
AcDbEntity
  8
ZUWAKU
 62
     7
100
AcDbText
 10
183.8723362463794
 20
132.5007204150656
 30
0.0
 40
3.5
  1
Ra1.6
 41
0.603448275862069
  7
dcStyle0
 72
     5
 11
192.6223362463794
 21
132.5007204150656
 31
0.0
100
AcDbText
  0
ENDBLK
  5
F4
330
F2
100
AcDbEntity
  8
0
100
AcDbBlockEnd
  0
BLOCK
  5
F6
330
F5
100
AcDbEntity
  8
0
100
AcDbBlockBegin
  2
DC_GROUP_COM-2117  PSLJC2-00S304A_17
 70
     0
 10
0.0
 20
0.0
 30
0.0
  3
DC_GROUP_COM-2117  PSLJC2-00S304A_17
  1

  0
LINE
  5
220
330
F5
100
AcDbEntity
  8
0
  6
Continuous
 62
     3
370
    18
100
AcDbLine
 10
-99.76811594202897
 20
-118.0670968139054
 30
0.0
 11
-99.76811594202897
 21
-98.06709681390542
 31
0.0
  0
LINE
  5
221
330
F5
100
AcDbEntity
  8
0
  6
Continuous
 62
     3
370
    18
100
AcDbLine
 10
-7.768115942028984
 20
-98.06709681390542
 30
0.0
 11
-7.768115942028984
 21
-118.0670968139054
 31
0.0
  0
LINE
  5
222
330
F5
100
AcDbEntity
  8
0
  6
Continuous
 62
     3
370
    18
100
AcDbLine
 10
-97.76811594202897
 20
-96.06709681390542
 30
0.0
 11
-99.76811594202897
 21
-98.06709681390542
 31
0.0
  0
LINE
  5
223
330
F5
100
AcDbEntity
  8
0
  6
Continuous
 62
     3
370
    18
100
AcDbLine
 10
-9.768115942028984
 20
-96.06709681390542
 30
0.0
 11
-7.768115942028984
 21
-98.06709681390542
 31
0.0
  0
LINE
  5
224
330
F5
100
AcDbEntity
  8
0
  6
Continuous
 62
     3
370
    18
100
AcDbLine
 10
-99.76811594202897
 20
-118.0670968139054
 30
0.0
 11
-97.76811594202897
 21
-120.0670968139054
 31
0.0
  0
LINE
  5
225
330
F5
100
AcDbEntity
  8
0
  6
Continuous
 62
     3
370
    18
100
AcDbLine
 10
-9.768115942028984
 20
-120.0670968139054
 30
0.0
 11
-7.768115942028984
 21
-118.0670968139054
 31
0.0
  0
LINE
  5
226
330
F5
100
AcDbEntity
  8
0
  6
Continuous
 62
     3
370
    18
100
AcDbLine
 10
-97.76811594202897
 20
-96.06709681390542
 30
0.0
 11
-83.76811594202894
 21
-96.06709681390545
 31
0.0
  0
LINE
  5
227
330
F5
100
AcDbEntity
  8
0
  6
Continuous
 62
     3
370
    18
100
AcDbLine
 10
-23.76811594202894
 20
-96.06709681390545
 30
0.0
 11
-9.768115942028984
 21
-96.06709681390542
 31
0.0
  0
LINE
  5
228
330
F5
100
AcDbEntity
  8
0
  6
Continuous
 62
     3
370
    18
100
AcDbLine
 10
-9.768115942028984
 20
-120.0670968139054
 30
0.0
 11
-23.90125803552912
 21
-120.0670968139054
 31
0.0
  0
LINE
  5
229
330
F5
100
AcDbEntity
  8
0
  6
Continuous
 62
     3
370
    18
100
AcDbLine
 10
-83.76811594202896
 20
-120.0670968139054
 30
0.0
 11
-97.76811594202897
 21
-120.0670968139054
 31
0.0
  0
ENDBLK
  5
F7
330
F5
100
AcDbEntity
  8
0
100
AcDbBlockEnd
  0
BLOCK
  5
F9
330
F8
100
AcDbEntity
  8
0
100
AcDbBlockBegin
  2
DC_GROUP_COM-2117  PSLJC2-00S304A_18
 70
     0
 10
0.0
 20
0.0
 30
0.0
  3
DC_GROUP_COM-2117  PSLJC2-00S304A_18
  1

  0
LINE
  5
22A
330
F8
100
AcDbEntity
  8
0
  6
CENTER
 62
     2
370
    13
100
AcDbLine
 10
-90.76811594202897
 20
-101.0670968139054
 30
0.0
 11
-90.76811594202897
 21
-115.0670968139054
 31
0.0
  0
LINE
  5
22B
330
F8
100
AcDbEntity
  8
0
  6
CENTER
 62
     2
370
    13
100
AcDbLine
 10
-97.76811594202897
 20
-108.0670968139054
 30
0.0
 11
-83.76811594202897
 21
-108.0670968139054
 31
0.0
  0
ARC
  5
22C
330
F8
100
AcDbEntity
  8
0
  6
DASHED2
 62
     4
370
    18
100
AcDbCircle
 10
-90.76811594202897
 20
-108.0670968139054
 30
0.0
 40
5.0
100
AcDbArc
 50
237.9658766319099
 51
237.430400721163
  0
ENDBLK
  5
FA
330
F8
100
AcDbEntity
  8
0
100
AcDbBlockEnd
  0
BLOCK
  5
FC
330
FB
100
AcDbEntity
  8
0
100
AcDbBlockBegin
  2
DC_GROUP_COM-2117  PSLJC2-00S304A_19
 70
     0
 10
0.0
 20
0.0
 30
0.0
  3
DC_GROUP_COM-2117  PSLJC2-00S304A_19
  1

  0
CIRCLE
  5
22D
330
FB
100
AcDbEntity
  8
0
  6
Continuous
 62
     4
370
    13
100
AcDbCircle
 10
-16.76811594202899
 20
-108.0670968139054
 30
0.0
 40
3.323499999999999
  0
CIRCLE
  5
22E
330
FB
100
AcDbEntity
  8
0
  6
Continuous
 62
     2
370
    13
100
AcDbCircle
 10
-16.76811594202899
 20
-108.0670968139054
 30
0.0
 40
4.0
  0
LINE
  5
22F
330
FB
100
AcDbEntity
  8
0
  6
CENTER
 62
     2
370
    13
100
AcDbLine
 10
-16.76811594202899
 20
-103.2670968139054
 30
0.0
 11
-16.76811594202899
 21
-112.8670968139054
 31
0.0
  0
LINE
  5
230
330
FB
100
AcDbEntity
  8
0
  6
CENTER
 62
     2
370
    13
100
AcDbLine
 10
-21.56811594202899
 20
-108.0670968139054
 30
0.0
 11
-11.96811594202899
 21
-108.0670968139054
 31
0.0
  0
ENDBLK
  5
FD
330
FB
100
AcDbEntity
  8
0
100
AcDbBlockEnd
  0
BLOCK
  5
FF
330
FE
100
AcDbEntity
  8
0
100
AcDbBlockBegin
  2
DC_GROUP_COM-2117  PSLJC2-00S304A_20
 70
     0
 10
0.0
 20
0.0
 30
0.0
  3
DC_GROUP_COM-2117  PSLJC2-00S304A_20
  1

  0
CIRCLE
  5
231
330
FE
100
AcDbEntity
  8
0
  6
Continuous
 62
     4
370
    13
100
AcDbCircle
 10
-90.76811594202897
 20
-108.0670968139054
 30
0.0
 40
3.323499999999996
  0
CIRCLE
  5
232
330
FE
100
AcDbEntity
  8
0
  6
Continuous
 62
     2
370
    13
100
AcDbCircle
 10
-90.76811594202897
 20
-108.0670968139054
 30
0.0
 40
4.0
  0
LINE
  5
233
330
FE
100
AcDbEntity
  8
0
  6
CENTER
 62
     2
370
    13
100
AcDbLine
 10
-90.76811594202897
 20
-103.2670968139054
 30
0.0
 11
-90.76811594202897
 21
-112.8670968139054
 31
0.0
  0
LINE
  5
234
330
FE
100
AcDbEntity
  8
0
  6
CENTER
 62
     2
370
    13
100
AcDbLine
 10
-95.56811594202897
 20
-108.0670968139054
 30
0.0
 11
-85.96811594202897
 21
-108.0670968139054
 31
0.0
  0
ENDBLK
  5
100
330
FE
100
AcDbEntity
  8
0
100
AcDbBlockEnd
  0
BLOCK
  5
102
330
101
100
AcDbEntity
  8
0
100
AcDbBlockBegin
  2
DC_GROUP_COM-2117  PSLJC2-00S304A_21
 70
     0
 10
0.0
 20
0.0
 30
0.0
  3
DC_GROUP_COM-2117  PSLJC2-00S304A_21
  1

  0
LINE
  5
235
330
101
100
AcDbEntity
  8
0
  6
Continuous
 62
     3
370
    18
100
AcDbLine
 10
83.07459940792396
 20
44.59683144712984
 30
0.0
 11
95.36199232823418
 21
44.59683144712984
 31
0.0
  0
LINE
  5
236
330
101
100
AcDbEntity
  8
0
  6
Continuous
 62
     3
370
    18
100
AcDbLine
 10
83.71829586807908
 20
42.99683144712985
 30
0.0
 11
94.71829586807908
 21
42.99683144712985
 31
0.0
  0
LINE
  5
237
330
101
100
AcDbEntity
  8
0
  6
Continuous
 62
     3
370
    18
100
AcDbLine
 10
81.21829586807907
 20
40.59683144712984
 30
0.0
 11
83.71829586807908
 21
42.99683144712985
 31
0.0
  0
LINE
  5
238
330
101
100
AcDbEntity
  8
0
  6
Continuous
 62
     3
370
    18
100
AcDbLine
 10
94.71829586807908
 20
42.99683144712985
 30
0.0
 11
97.21829586807908
 21
40.59683144712984
 31
0.0
  0
LINE
  5
239
330
101
100
AcDbEntity
  8
0
  6
Continuous
 62
     3
370
    18
100
AcDbLine
 10
80.57459940792394
 20
42.19683144712985
 30
0.0
 11
83.07459940792396
 21
44.59683144712984
 31
0.0
  0
LINE
  5
23A
330
101
100
AcDbEntity
  8
0
  6
Continuous
 62
     3
370
    18
100
AcDbLine
 10
95.36199232823418
 20
44.59683144712984
 30
0.0
 11
97.86199232823421
 21
42.19683144712985
 31
0.0
  0
LINE
  5
23B
330
101
100
AcDbEntity
  8
0
  6
Continuous
 62
     3
370
    18
100
AcDbLine
 10
83.07459940792396
 20
67.09683144712986
 30
0.0
 11
95.36199232823418
 21
67.09683144712986
 31
0.0
  0
LINE
  5
23C
330
101
100
AcDbEntity
  8
0
  6
Continuous
 62
     3
370
    18
100
AcDbLine
 10
80.57459940792394
 20
64.69683144712985
 30
0.0
 11
83.07459940792396
 21
67.09683144712986
 31
0.0
  0
LINE
  5
23D
330
101
100
AcDbEntity
  8
0
  6
Continuous
 62
     3
370
    18
100
AcDbLine
 10
95.36199232823418
 20
67.09683144712986
 30
0.0
 11
97.86199232823421
 21
64.69683144712985
 31
0.0
  0
LINE
  5
23E
330
101
100
AcDbEntity
  8
0
  6
Continuous
 62
     3
370
    18
100
AcDbLine
 10
80.57459940792394
 20
64.69683144712985
 30
0.0
 11
80.57459940792394
 21
42.19683144712985
 31
0.0
  0
LINE
  5
23F
330
101
100
AcDbEntity
  8
0
  6
Continuous
 62
     3
370
    18
100
AcDbLine
 10
97.86199232823421
 20
64.69683144712985
 30
0.0
 11
97.86199232823421
 21
42.19683144712985
 31
0.0
  0
LINE
  5
240
330
101
100
AcDbEntity
  8
0
  6
Continuous
 62
     3
370
    18
100
AcDbLine
 10
95.36199232823418
 20
67.09683144712986
 30
0.0
 11
95.36199232823418
 21
64.65313498697475
 31
0.0
  0
LINE
  5
241
330
101
100
AcDbEntity
  8
0
  6
Continuous
 62
     3
370
    18
100
AcDbLine
 10
83.07459940792396
 20
67.09683144712986
 30
0.0
 11
83.07459940792396
 21
64.65313498697472
 31
0.0
  0
LINE
  5
242
330
101
100
AcDbEntity
  8
0
  6
DASHED2
 62
     4
370
    18
100
AcDbLine
 10
83.71829586807908
 20
65.49683144712986
 30
0.0
 11
94.71829586807908
 21
65.49683144712986
 31
0.0
  0
LINE
  5
243
330
101
100
AcDbEntity
  8
0
  6
DASHED2
 62
     4
370
    18
100
AcDbLine
 10
81.21829586807907
 20
63.09683144712985
 30
0.0
 11
83.71829586807908
 21
65.49683144712986
 31
0.0
  0
LINE
  5
244
330
101
100
AcDbEntity
  8
0
  6
DASHED2
 62
     4
370
    18
100
AcDbLine
 10
94.71829586807908
 20
65.49683144712986
 30
0.0
 11
97.21829586807908
 21
63.09683144712985
 31
0.0
  0
INSERT
  5
245
330
101
100
AcDbEntity
  8
0
  6
Continuous
100
AcDbBlockReference
  2
DC_GROUP_COM-2117  PSLJC2-00S304A_22
 10
0.0
 20
0.0
 30
0.0
  0
INSERT
  5
246
330
101
100
AcDbEntity
  8
0
  6
Continuous
100
AcDbBlockReference
  2
DC_GROUP_COM-2117  PSLJC2-00S304A_23
 10
0.0
 20
0.0
 30
0.0
  0
LINE
  5
247
330
101
100
AcDbEntity
  8
0
  6
DASHED2
 62
     4
370
    13
100
AcDbLine
 10
95.36199232823418
 20
64.65313498697475
 30
0.0
 11
95.36199232823418
 21
44.59683144712984
 31
0.0
  0
LINE
  5
248
330
101
100
AcDbEntity
  8
0
  6
DASHED2
 62
     4
370
    13
100
AcDbLine
 10
83.07459940792396
 20
64.65313498697472
 30
0.0
 11
83.07459940792396
 21
44.59683144712984
 31
0.0
  0
ENDBLK
  5
103
330
101
100
AcDbEntity
  8
0
100
AcDbBlockEnd
  0
BLOCK
  5
105
330
104
100
AcDbEntity
  8
0
100
AcDbBlockBegin
  2
DC_GROUP_COM-2117  PSLJC2-00S304A_22
 70
     0
 10
0.0
 20
0.0
 30
0.0
  3
DC_GROUP_COM-2117  PSLJC2-00S304A_22
  1

  0
LINE
  5
249
330
104
100
AcDbEntity
  8
0
  6
Continuous
 62
     3
370
    18
100
AcDbLine
 10
77.21829586807907
 20
40.59683144712984
 30
0.0
 11
77.21829586807907
 21
64.69683144712985
 31
0.0
  0
LINE
  5
24A
330
104
100
AcDbEntity
  8
0
  6
Continuous
 62
     3
370
    18
100
AcDbLine
 10
101.2182958680791
 20
40.59683144712984
 30
0.0
 11
101.2182958680791
 21
64.69683144712985
 31
0.0
  0
LINE
  5
24B
330
104
100
AcDbEntity
  8
0
  6
Continuous
 62
     3
370
    18
100
AcDbLine
 10
77.21829586807907
 20
42.19683144712985
 30
0.0
 11
80.57459940792394
 21
42.19683144712985
 31
0.0
  0
LINE
  5
24C
330
104
100
AcDbEntity
  8
0
  6
Continuous
 62
     3
370
    18
100
AcDbLine
 10
97.86199232823421
 20
42.19683144712985
 30
0.0
 11
101.2182958680791
 21
42.19683144712985
 31
0.0
  0
LINE
  5
24D
330
104
100
AcDbEntity
  8
0
  6
Continuous
 62
     3
370
    18
100
AcDbLine
 10
101.2182958680791
 20
40.59683144712984
 30
0.0
 11
97.21829586807908
 21
40.59683144712984
 31
0.0
  0
LINE
  5
24E
330
104
100
AcDbEntity
  8
0
  6
Continuous
 62
     3
370
    18
100
AcDbLine
 10
81.21829586807907
 20
40.59683144712984
 30
0.0
 11
77.21829586807907
 21
40.59683144712984
 31
0.0
  0
ENDBLK
  5
106
330
104
100
AcDbEntity
  8
0
100
AcDbBlockEnd
  0
BLOCK
  5
108
330
107
100
AcDbEntity
  8
0
100
AcDbBlockBegin
  2
DC_GROUP_COM-2117  PSLJC2-00S304A_23
 70
     0
 10
0.0
 20
0.0
 30
0.0
  3
DC_GROUP_COM-2117  PSLJC2-00S304A_23
  1

  0
LINE
  5
24F
330
107
100
AcDbEntity
  8
0
  6
Continuous
 62
     3
370
    18
100
AcDbLine
 10
77.21829586807907
 20
64.69683144712985
 30
0.0
 11
80.57459940792394
 21
64.69683144712985
 31
0.0
  0
LINE
  5
250
330
107
100
AcDbEntity
  8
0
  6
Continuous
 62
     3
370
    18
100
AcDbLine
 10
97.86199232823421
 20
64.69683144712985
 30
0.0
 11
101.2182958680791
 21
64.69683144712985
 31
0.0
  0
LINE
  5
251
330
107
100
AcDbEntity
  8
0
  6
DASHED2
 62
     4
370
    18
100
AcDbLine
 10
101.2182958680791
 20
63.09683144712985
 30
0.0
 11
97.21829586807908
 21
63.09683144712985
 31
0.0
  0
LINE
  5
252
330
107
100
AcDbEntity
  8
0
  6
DASHED2
 62
     4
370
    18
100
AcDbLine
 10
81.21829586807907
 20
63.09683144712985
 30
0.0
 11
77.21829586807907
 21
63.09683144712985
 31
0.0
  0
ENDBLK
  5
109
330
107
100
AcDbEntity
  8
0
100
AcDbBlockEnd
  0
BLOCK
  5
10B
330
10A
100
AcDbEntity
  8
0
100
AcDbBlockBegin
  2
DC_GROUP_COM-2117  PSLJC2-00S304A_24
 70
     0
 10
0.0
 20
0.0
 30
0.0
  3
DC_GROUP_COM-2117  PSLJC2-00S304A_24
  1

  0
LINE
  5
253
330
10A
100
AcDbEntity
  8
0
  6
Continuous
 62
     3
370
    18
100
AcDbLine
 10
83.07459940792396
 20
31.59683144712985
 30
0.0
 11
95.36199232823418
 21
31.59683144712985
 31
0.0
  0
LINE
  5
254
330
10A
100
AcDbEntity
  8
0
  6
Continuous
 62
     3
370
    18
100
AcDbLine
 10
83.71829586807908
 20
33.19683144712985
 30
0.0
 11
94.71829586807908
 21
33.19683144712985
 31
0.0
  0
LINE
  5
255
330
10A
100
AcDbEntity
  8
0
  6
Continuous
 62
     3
370
    18
100
AcDbLine
 10
81.21829586807907
 20
35.59683144712986
 30
0.0
 11
83.71829586807908
 21
33.19683144712985
 31
0.0
  0
LINE
  5
256
330
10A
100
AcDbEntity
  8
0
  6
Continuous
 62
     3
370
    18
100
AcDbLine
 10
94.71829586807908
 20
33.19683144712985
 30
0.0
 11
97.21829586807908
 21
35.59683144712986
 31
0.0
  0
LINE
  5
257
330
10A
100
AcDbEntity
  8
0
  6
Continuous
 62
     3
370
    18
100
AcDbLine
 10
80.57459940792394
 20
33.99683144712985
 30
0.0
 11
83.07459940792396
 21
31.59683144712985
 31
0.0
  0
LINE
  5
258
330
10A
100
AcDbEntity
  8
0
  6
Continuous
 62
     3
370
    18
100
AcDbLine
 10
95.36199232823418
 20
31.59683144712985
 30
0.0
 11
97.86199232823421
 21
33.99683144712985
 31
0.0
  0
LINE
  5
259
330
10A
100
AcDbEntity
  8
0
  6
Continuous
 62
     3
370
    18
100
AcDbLine
 10
83.07459940792396
 20
9.096831447129844
 30
0.0
 11
95.36199232823418
 21
9.096831447129844
 31
0.0
  0
LINE
  5
25A
330
10A
100
AcDbEntity
  8
0
  6
Continuous
 62
     3
370
    18
100
AcDbLine
 10
80.57459940792394
 20
11.49683144712985
 30
0.0
 11
83.07459940792396
 21
9.096831447129844
 31
0.0
  0
LINE
  5
25B
330
10A
100
AcDbEntity
  8
0
  6
Continuous
 62
     3
370
    18
100
AcDbLine
 10
95.36199232823418
 20
9.096831447129844
 30
0.0
 11
97.86199232823421
 21
11.49683144712985
 31
0.0
  0
LINE
  5
25C
330
10A
100
AcDbEntity
  8
0
  6
Continuous
 62
     3
370
    18
100
AcDbLine
 10
80.57459940792394
 20
11.49683144712985
 30
0.0
 11
80.57459940792394
 21
33.99683144712985
 31
0.0
  0
LINE
  5
25D
330
10A
100
AcDbEntity
  8
0
  6
Continuous
 62
     3
370
    18
100
AcDbLine
 10
97.86199232823421
 20
11.49683144712985
 30
0.0
 11
97.86199232823421
 21
33.99683144712985
 31
0.0
  0
LINE
  5
25E
330
10A
100
AcDbEntity
  8
0
  6
Continuous
 62
     3
370
    18
100
AcDbLine
 10
83.07459940792396
 20
9.096831447129844
 30
0.0
 11
83.07459940792396
 21
31.59683144712985
 31
0.0
  0
LINE
  5
25F
330
10A
100
AcDbEntity
  8
0
  6
Continuous
 62
     3
370
    18
100
AcDbLine
 10
95.36199232823418
 20
9.096831447129844
 30
0.0
 11
95.36199232823418
 21
31.59683144712985
 31
0.0
  0
LINE
  5
260
330
10A
100
AcDbEntity
  8
0
  6
DASHED2
 62
     4
370
    18
100
AcDbLine
 10
83.71829586807908
 20
10.69683144712985
 30
0.0
 11
94.71829586807908
 21
10.69683144712985
 31
0.0
  0
LINE
  5
261
330
10A
100
AcDbEntity
  8
0
  6
DASHED2
 62
     4
370
    18
100
AcDbLine
 10
81.21829586807907
 20
13.09683144712984
 30
0.0
 11
83.71829586807908
 21
10.69683144712985
 31
0.0
  0
LINE
  5
262
330
10A
100
AcDbEntity
  8
0
  6
DASHED2
 62
     4
370
    18
100
AcDbLine
 10
94.71829586807908
 20
10.69683144712985
 30
0.0
 11
97.21829586807908
 21
13.09683144712984
 31
0.0
  0
INSERT
  5
263
330
10A
100
AcDbEntity
  8
0
  6
Continuous
100
AcDbBlockReference
  2
DC_GROUP_COM-2117  PSLJC2-00S304A_25
 10
0.0
 20
0.0
 30
0.0
  0
INSERT
  5
264
330
10A
100
AcDbEntity
  8
0
  6
Continuous
100
AcDbBlockReference
  2
DC_GROUP_COM-2117  PSLJC2-00S304A_26
 10
0.0
 20
0.0
 30
0.0
  0
ENDBLK
  5
10C
330
10A
100
AcDbEntity
  8
0
100
AcDbBlockEnd
  0
BLOCK
  5
10E
330
10D
100
AcDbEntity
  8
0
100
AcDbBlockBegin
  2
DC_GROUP_COM-2117  PSLJC2-00S304A_25
 70
     0
 10
0.0
 20
0.0
 30
0.0
  3
DC_GROUP_COM-2117  PSLJC2-00S304A_25
  1

  0
LINE
  5
265
330
10D
100
AcDbEntity
  8
0
  6
Continuous
 62
     3
370
    18
100
AcDbLine
 10
77.21829586807907
 20
35.59683144712986
 30
0.0
 11
77.21829586807907
 21
11.49683144712985
 31
0.0
  0
LINE
  5
266
330
10D
100
AcDbEntity
  8
0
  6
Continuous
 62
     3
370
    18
100
AcDbLine
 10
101.2182958680791
 20
35.59683144712986
 30
0.0
 11
101.2182958680791
 21
11.49683144712986
 31
0.0
  0
LINE
  5
267
330
10D
100
AcDbEntity
  8
0
  6
Continuous
 62
     3
370
    18
100
AcDbLine
 10
77.21829586807907
 20
33.99683144712985
 30
0.0
 11
80.57459940792394
 21
33.99683144712985
 31
0.0
  0
LINE
  5
268
330
10D
100
AcDbEntity
  8
0
  6
Continuous
 62
     3
370
    18
100
AcDbLine
 10
97.86199232823421
 20
33.99683144712985
 30
0.0
 11
101.2182958680791
 21
33.99683144712985
 31
0.0
  0
LINE
  5
269
330
10D
100
AcDbEntity
  8
0
  6
Continuous
 62
     3
370
    18
100
AcDbLine
 10
101.2182958680791
 20
35.59683144712986
 30
0.0
 11
97.21829586807908
 21
35.59683144712986
 31
0.0
  0
LINE
  5
26A
330
10D
100
AcDbEntity
  8
0
  6
Continuous
 62
     3
370
    18
100
AcDbLine
 10
81.21829586807907
 20
35.59683144712986
 30
0.0
 11
77.21829586807907
 21
35.59683144712986
 31
0.0
  0
ENDBLK
  5
10F
330
10D
100
AcDbEntity
  8
0
100
AcDbBlockEnd
  0
BLOCK
  5
111
330
110
100
AcDbEntity
  8
0
100
AcDbBlockBegin
  2
DC_GROUP_COM-2117  PSLJC2-00S304A_26
 70
     0
 10
0.0
 20
0.0
 30
0.0
  3
DC_GROUP_COM-2117  PSLJC2-00S304A_26
  1

  0
LINE
  5
26B
330
110
100
AcDbEntity
  8
0
  6
Continuous
 62
     3
370
    18
100
AcDbLine
 10
77.21829586807907
 20
11.49683144712985
 30
0.0
 11
80.57459940792394
 21
11.49683144712985
 31
0.0
  0
LINE
  5
26C
330
110
100
AcDbEntity
  8
0
  6
Continuous
 62
     3
370
    18
100
AcDbLine
 10
97.86199232823421
 20
11.49683144712985
 30
0.0
 11
101.2182958680791
 21
11.49683144712986
 31
0.0
  0
LINE
  5
26D
330
110
100
AcDbEntity
  8
0
  6
DASHED2
 62
     4
370
    18
100
AcDbLine
 10
101.2182958680791
 20
13.09683144712986
 30
0.0
 11
97.21829586807908
 21
13.09683144712984
 31
0.0
  0
LINE
  5
26E
330
110
100
AcDbEntity
  8
0
  6
DASHED2
 62
     4
370
    18
100
AcDbLine
 10
81.21829586807907
 20
13.09683144712984
 30
0.0
 11
77.21829586807907
 21
13.09683144712984
 31
0.0
  0
ENDBLK
  5
112
330
110
100
AcDbEntity
  8
0
100
AcDbBlockEnd
  0
BLOCK
  5
114
330
113
100
AcDbEntity
  8
0
100
AcDbBlockBegin
  2
DC_GROUP_COM-2117  PSLJC2-00S304A_27
 70
     0
 10
0.0
 20
0.0
 30
0.0
  3
DC_GROUP_COM-2117  PSLJC2-00S304A_27
  1

  0
LINE
  5
26F
330
113
100
AcDbEntity
  8
0
  6
Continuous
 62
     4
370
    13
100
AcDbLine
 10
-23.26811594202898
 20
44.59683144712986
 30
0.0
 11
-23.26811594202898
 21
51.79683144712985
 31
0.0
  0
LINE
  5
270
330
113
100
AcDbEntity
  8
0
  6
Continuous
 62
     4
370
    13
100
AcDbLine
 10
-23.26811594202898
 20
51.79683144712985
 30
0.0
 11
-22.46811594202897
 21
52.59683144712986
 31
0.0
  0
LINE
  5
271
330
113
100
AcDbEntity
  8
0
  6
Continuous
 62
     4
370
    13
100
AcDbLine
 10
-23.26811594202898
 20
51.79683144712985
 30
0.0
 11
-10.26811594202898
 21
51.79683144712985
 31
0.0
  0
LINE
  5
272
330
113
100
AcDbEntity
  8
0
  6
Continuous
 62
     4
370
    13
100
AcDbLine
 10
-23.26811594202898
 20
44.59683144712986
 30
0.0
 11
-10.26811594202898
 21
44.59683144712986
 31
0.0
  0
LINE
  5
273
330
113
100
AcDbEntity
  8
0
  6
Continuous
 62
     4
370
    13
100
AcDbLine
 10
-10.26811594202898
 20
44.59683144712986
 30
0.0
 11
-10.26811594202898
 21
51.79683144712985
 31
0.0
  0
LINE
  5
274
330
113
100
AcDbEntity
  8
0
  6
Continuous
 62
     4
370
    13
100
AcDbLine
 10
-10.26811594202898
 20
51.79683144712985
 30
0.0
 11
-11.06811594202898
 21
52.59683144712986
 31
0.0
  0
LINE
  5
275
330
113
100
AcDbEntity
  8
0
  6
Continuous
 62
     4
370
    13
100
AcDbLine
 10
-22.46811594202897
 20
52.59683144712986
 30
0.0
 11
-11.06811594202898
 21
52.59683144712986
 31
0.0
  0
LINE
  5
276
330
113
100
AcDbEntity
  8
0
  6
Continuous
 62
     4
370
    13
100
AcDbLine
 10
-20.76811594202898
 20
20.79683144712985
 30
0.0
 11
-12.76811594202898
 21
20.79683144712985
 31
0.0
  0
LINE
  5
277
330
113
100
AcDbEntity
  8
0
  6
Continuous
 62
     4
370
    13
100
AcDbLine
 10
-19.56811594202898
 20
19.59683144712985
 30
0.0
 11
-13.96811594202897
 21
19.59683144712986
 31
0.0
  0
LINE
  5
278
330
113
100
AcDbEntity
  8
0
  6
Continuous
 62
     4
370
    13
100
AcDbLine
 10
-20.76811594202898
 20
20.79683144712985
 30
0.0
 11
-19.56811594202898
 21
19.59683144712985
 31
0.0
  0
LINE
  5
279
330
113
100
AcDbEntity
  8
0
  6
Continuous
 62
     4
370
    13
100
AcDbLine
 10
-12.76811594202898
 20
20.79683144712985
 30
0.0
 11
-13.96811594202897
 21
19.59683144712986
 31
0.0
  0
LINE
  5
27A
330
113
100
AcDbEntity
  8
0
  6
Continuous
 62
     4
370
    13
100
AcDbLine
 10
-12.76811594202898
 20
31.59683144712985
 30
0.0
 11
-12.76811594202898
 21
20.79683144712985
 31
0.0
  0
LINE
  5
27B
330
113
100
AcDbEntity
  8
0
  6
Continuous
 62
     4
370
    13
100
AcDbLine
 10
-13.44461594202897
 20
31.59683144712985
 30
0.0
 11
-13.44461594202897
 21
20.12033144712985
 31
0.0
  0
LINE
  5
27C
330
113
100
AcDbEntity
  8
0
  6
Continuous
 62
     4
370
    13
100
AcDbLine
 10
-20.76811594202898
 20
31.59683144712985
 30
0.0
 11
-20.76811594202898
 21
20.79683144712985
 31
0.0
  0
LINE
  5
27D
330
113
100
AcDbEntity
  8
0
  6
Continuous
 62
     4
370
    13
100
AcDbLine
 10
-20.09161594202898
 20
31.59683144712985
 30
0.0
 11
-20.09161594202898
 21
20.12033144712985
 31
0.0
  0
LINE
  5
27E
330
113
100
AcDbEntity
  8
0
  6
DASHED2
 62
     4
370
    13
100
AcDbLine
 10
-20.76811594202898
 20
43.57683144712986
 30
0.0
 11
-20.09161594202898
 21
41.07683144712986
 31
0.0
  0
LINE
  5
27F
330
113
100
AcDbEntity
  8
0
  6
DASHED2
 62
     4
370
    13
100
AcDbLine
 10
-20.76811594202898
 20
41.07683144712986
 30
0.0
 11
-12.76811594202898
 21
41.07683144712986
 31
0.0
  0
LINE
  5
280
330
113
100
AcDbEntity
  8
0
  6
DASHED2
 62
     4
370
    13
100
AcDbLine
 10
-12.76811594202898
 20
43.57683144712986
 30
0.0
 11
-13.44461594202897
 21
41.07683144712986
 31
0.0
  0
ARC
  5
281
330
113
100
AcDbEntity
  8
0
  6
DASHED2
 62
     4
370
    13
100
AcDbCircle
 10
-21.36811594202898
 20
44.19683144712985
 30
0.0
 40
0.4000000000000004
100
AcDbArc
 50
17.87869659584152
 51
90.00000000000001
  0
ARC
  5
282
330
113
100
AcDbEntity
  8
0
  6
DASHED2
 62
     4
370
    13
100
AcDbCircle
 10
-12.16811594202898
 20
44.19683144712985
 30
0.0
 40
0.4000000000000016
100
AcDbArc
 50
90.00000000000001
 51
162.1213034041585
  0
ARC
  5
283
330
113
100
AcDbEntity
  8
0
  6
DASHED2
 62
     4
370
    13
100
AcDbCircle
 10
-21.16811594202898
 20
43.57683144712986
 30
0.0
 40
0.4000000000000016
100
AcDbArc
 50
0.000000000000007
 51
17.87869659584152
  0
ARC
  5
284
330
113
100
AcDbEntity
  8
0
  6
DASHED2
 62
     4
370
    13
100
AcDbCircle
 10
-12.36811594202898
 20
43.57683144712986
 30
0.0
 40
0.3999999999999986
100
AcDbArc
 50
162.1213034041585
 51
180.0
  0
LINE
  5
285
330
113
100
AcDbEntity
  8
0
  6
DASHED2
 62
     4
370
    13
100
AcDbLine
 10
-20.78743249492476
 20
43.69963255909896
 30
0.0
 11
-20.98743249492476
 21
44.31963255909896
 31
0.0
  0
LINE
  5
286
330
113
100
AcDbEntity
  8
0
  6
DASHED2
 62
     4
370
    13
100
AcDbLine
 10
-12.7487993891332
 20
43.69963255909896
 30
0.0
 11
-12.54879938913319
 21
44.31963255909896
 31
0.0
  0
LINE
  5
287
330
113
100
AcDbEntity
  8
0
  6
DASHED2
 62
     4
370
    13
100
AcDbLine
 10
-12.76811594202898
 20
43.57683144712986
 30
0.0
 11
-12.76811594202898
 21
31.59683144712985
 31
0.0
  0
LINE
  5
288
330
113
100
AcDbEntity
  8
0
  6
DASHED2
 62
     4
370
    13
100
AcDbLine
 10
-13.44461594202897
 20
41.07683144712986
 30
0.0
 11
-13.44461594202897
 21
31.59683144712985
 31
0.0
  0
LINE
  5
289
330
113
100
AcDbEntity
  8
0
  6
DASHED2
 62
     4
370
    13
100
AcDbLine
 10
-20.76811594202898
 20
43.57683144712986
 30
0.0
 11
-20.76811594202898
 21
31.59683144712985
 31
0.0
  0
LINE
  5
28A
330
113
100
AcDbEntity
  8
0
  6
DASHED2
 62
     4
370
    13
100
AcDbLine
 10
-20.09161594202898
 20
41.07683144712986
 30
0.0
 11
-20.09161594202898
 21
31.59683144712985
 31
0.0
  0
LINE
  5
28B
330
113
100
AcDbEntity
  8
0
  6
CENTER
 62
     2
370
    13
100
AcDbLine
 10
-16.76811594202898
 20
53.89683144712986
 30
0.0
 11
-16.76811594202898
 21
18.29683144712985
 31
0.0
  0
ENDBLK
  5
115
330
113
100
AcDbEntity
  8
0
100
AcDbBlockEnd
  0
BLOCK
  5
117
330
116
100
AcDbEntity
  8
0
100
AcDbBlockBegin
  2
DC_GROUP_COM-2117  PSLJC2-00S304A_28
 70
     0
 10
0.0
 20
0.0
 30
0.0
  3
DC_GROUP_COM-2117  PSLJC2-00S304A_28
  1

  0
LINE
  5
28C
330
116
100
AcDbEntity
  8
0
  6
Continuous
 62
     2
370
    13
100
AcDbLine
 10
-40.02307601091827
 20
58.97921343032738
 30
0.0
 11
-67.51315587313968
 21
17.21444946393234
 31
0.0
  0
LINE
  5
28D
330
116
100
AcDbEntity
  8
0
  6
Continuous
 62
     2
370
    13
100
AcDbLine
 10
-80.77494779773758
 20
-2.933749896646667
 30
0.0
 11
-67.51315587313968
 21
17.21444946393234
 31
0.0
  0
INSERT
  5
28E
330
116
100
AcDbEntity
  8
0
 62
     2
100
AcDbBlockReference
  2
_Open30
 10
-67.51315587313968
 20
17.21444946393234
 30
0.0
 41
3.000002807615286
 42
2.999989368223643
 50
56.646597223093
  0
LINE
  5
28F
330
116
100
AcDbEntity
  8
0
  6
Continuous
 62
     2
370
    13
100
AcDbLine
 10
-37.27406802469613
 20
63.15568982696688
 30
0.0
 11
-40.02307601091827
 21
58.97921343032738
 31
0.0
  0
INSERT
  5
290
330
116
100
AcDbEntity
  8
0
 62
     2
100
AcDbBlockReference
  2
_Open30
 10
-40.02307601091827
 20
58.97921343032738
 30
0.0
 41
3.000002807615286
 42
2.999989368223643
 50
236.646597223093
  0
ENDBLK
  5
118
330
116
100
AcDbEntity
  8
0
100
AcDbBlockEnd
  0
BLOCK
  5
11A
330
119
100
AcDbEntity
  8
0
100
AcDbBlockBegin
  2
DC_GROUP_COM-2117  PSLJC2-00S304A_29
 70
     0
 10
0.0
 20
0.0
 30
0.0
  3
DC_GROUP_COM-2117  PSLJC2-00S304A_29
  1

  0
LINE
  5
291
330
119
100
AcDbEntity
  8
0
  6
Continuous
 62
     2
370
    13
100
AcDbLine
 10
-80.77494779773758
 20
-2.933749896646667
 30
0.0
 11
-98.77494779773758
 21
-2.933749896646667
 31
0.0
  0
TEXT
  5
292
330
119
100
AcDbEntity
  8
0
 62
     4
100
AcDbText
 10
-98.77494779773758
 20
-2.933749896646667
 30
0.0
 40
4.5
  1
φ51～53
 41
0.7433628318584071
  7
dcStyle0
 72
     5
 11
-80.77494779773758
 21
-2.933749896646667
 31
0.0
100
AcDbText
  0
ENDBLK
  5
11B
330
119
100
AcDbEntity
  8
0
100
AcDbBlockEnd
  0
BLOCK
  5
11D
330
11C
100
AcDbEntity
  8
0
100
AcDbBlockBegin
  2
*D36
 70
     1
 10
0.0
 20
0.0
 30
0.0
  3
*D36
  1

  0
LINE
  5
293
330
11C
100
AcDbEntity
  8
0
  6
Continuous
 62
     2
370
    13
100
AcDbLine
 10
-90.76811594202897
 20
72.93478260869566
 30
0.0
 11
-16.76811594202898
 21
72.93478260869566
 31
0.0
  0
INSERT
  5
294
330
11C
100
AcDbEntity
  8
0
 62
     2
100
AcDbBlockReference
  2
_Open30
 10
-90.76811594202897
 20
72.93478260869566
 30
0.0
 41
3.000002807615286
 42
2.999989368223643
 50
180.0
  0
INSERT
  5
295
330
11C
100
AcDbEntity
  8
0
 62
     2
100
AcDbBlockReference
  2
_Open30
 10
-16.76811594202898
 20
72.93478260869566
 30
0.0
 41
3.000002807615286
 42
2.999989368223643
 50
360.0
  0
LINE
  5
296
330
11C
100
AcDbEntity
  8
0
  6
Continuous
 62
     2
370
    13
100
AcDbLine
 10
-90.76811594202897
 20
54.89683144712986
 30
0.0
 11
-90.76811594202897
 21
73.93478260869566
 31
0.0
  0
LINE
  5
297
330
11C
100
AcDbEntity
  8
0
  6
Continuous
 62
     2
370
    13
100
AcDbLine
 10
-16.76811594202898
 20
54.89683144712986
 30
0.0
 11
-16.76811594202898
 21
73.93478260869566
 31
0.0
  0
MTEXT
  5
298
330
11C
100
AcDbEntity
  8
0
 62
     4
100
AcDbMText
 10
-53.76811594202898
 20
73.93478260869566
 30
0.0
 40
4.5
 41
0.0
 46
0.0
 71
     8
 72
     1
  1
\T1.00;\W0.5000;74
  7
dcStyle0
 73
     1
 44
1.0
  0
ENDBLK
  5
11E
330
11C
100
AcDbEntity
  8
0
100
AcDbBlockEnd
  0
BLOCK
  5
120
330
11F
100
AcDbEntity
  8
0
100
AcDbBlockBegin
  2
*D37
 70
     1
 10
0.0
 20
0.0
 30
0.0
  3
*D37
  1

  0
LINE
  5
299
330
11F
100
AcDbEntity
  8
0
  6
Continuous
 62
     2
370
    13
100
AcDbLine
 10
18.26932668329177
 20
-35.90316855287014
 30
0.0
 11
18.26932668329177
 21
67.09683144712986
 31
0.0
  0
INSERT
  5
29A
330
11F
100
AcDbEntity
  8
0
 62
     2
100
AcDbBlockReference
  2
_Open30
 10
18.26932668329177
 20
-35.90316855287014
 30
0.0
 41
3.000002807615286
 42
2.999989368223643
 50
270.0
  0
INSERT
  5
29B
330
11F
100
AcDbEntity
  8
0
 62
     2
100
AcDbBlockReference
  2
_Open30
 10
18.26932668329177
 20
67.09683144712986
 30
0.0
 41
3.000002807615286
 42
2.999989368223643
 50
90.0
  0
LINE
  5
29C
330
11F
100
AcDbEntity
  8
0
  6
Continuous
 62
     2
370
    13
100
AcDbLine
 10
-44.26811594202898
 20
-35.90316855287014
 30
0.0
 11
19.26932668329177
 21
-35.90316855287014
 31
0.0
  0
LINE
  5
29D
330
11F
100
AcDbEntity
  8
0
  6
Continuous
 62
     2
370
    13
100
AcDbLine
 10
-52.76811594202898
 20
67.09683144712986
 30
0.0
 11
19.26932668329177
 21
67.09683144712986
 31
0.0
  0
MTEXT
  5
29E
330
11F
100
AcDbEntity
  8
0
 62
     4
100
AcDbMText
 10
17.26932668329177
 20
15.59683144712985
 30
0.0
 40
4.5
 41
0.0
 46
0.0
 71
     8
 72
     1
  1
\T1.00;\W0.5000;103
  7
dcStyle0
 11
6.123233995736766E-17
 21
1.0
 31
0.0
 73
     1
 44
1.0
  0
ENDBLK
  5
121
330
11F
100
AcDbEntity
  8
0
100
AcDbBlockEnd
  0
BLOCK
  5
123
330
122
100
AcDbEntity
  8
0
100
AcDbBlockBegin
  2
*D38
 70
     1
 10
0.0
 20
0.0
 30
0.0
  3
*D38
  1

  0
LINE
  5
29F
330
122
100
AcDbEntity
  8
0
  6
Continuous
 62
     2
370
    13
100
AcDbLine
 10
6.418952618453866
 20
-35.90316855287014
 30
0.0
 11
6.418952618453866
 21
38.09683144712986
 31
0.0
  0
INSERT
  5
2A0
330
122
100
AcDbEntity
  8
0
 62
     2
100
AcDbBlockReference
  2
_Open30
 10
6.418952618453866
 20
-35.90316855287014
 30
0.0
 41
3.000002807615286
 42
2.999989368223643
 50
270.0
  0
INSERT
  5
2A1
330
122
100
AcDbEntity
  8
0
 62
     2
100
AcDbBlockReference
  2
_Open30
 10
6.418952618453866
 20
38.09683144712986
 30
0.0
 41
3.000002807615286
 42
2.999989368223643
 50
90.0
  0
LINE
  5
2A2
330
122
100
AcDbEntity
  8
0
  6
Continuous
 62
     2
370
    13
100
AcDbLine
 10
18.26932668329177
 20
-35.90316855287014
 30
0.0
 11
5.418952618453866
 21
-35.90316855287014
 31
0.0
  0
LINE
  5
2A3
330
122
100
AcDbEntity
  8
0
  6
Continuous
 62
     2
370
    13
100
AcDbLine
 10
-6.768115942028977
 20
38.09683144712986
 30
0.0
 11
7.418952618453866
 21
38.09683144712986
 31
0.0
  0
MTEXT
  5
2A4
330
122
100
AcDbEntity
  8
0
 62
     4
100
AcDbMText
 10
5.418952618453866
 20
1.096831447129857
 30
0.0
 40
4.5
 41
0.0
 46
0.0
 71
     8
 72
     1
  1
\T1.00;\W0.5000;74
  7
dcStyle0
 11
6.123233995736766E-17
 21
1.0
 31
0.0
 73
     1
 44
1.0
  0
ENDBLK
  5
124
330
122
100
AcDbEntity
  8
0
100
AcDbBlockEnd
  0
BLOCK
  5
126
330
125
100
AcDbEntity
  8
0
100
AcDbBlockBegin
  2
DC_GROUP_COM-2117  PSLJC2-00S304A_30
 70
     0
 10
0.0
 20
0.0
 30
0.0
  3
DC_GROUP_COM-2117  PSLJC2-00S304A_30
  1

  0
LINE
  5
2A5
330
125
100
AcDbEntity
  8
0
  6
Continuous
 62
     4
370
    13
100
AcDbLine
 10
82.71829586807908
 20
44.59683144712986
 30
0.0
 11
82.71829586807908
 21
51.79683144712985
 31
0.0
  0
LINE
  5
2A6
330
125
100
AcDbEntity
  8
0
  6
Continuous
 62
     4
370
    13
100
AcDbLine
 10
82.71829586807908
 20
51.79683144712985
 30
0.0
 11
83.5182958680791
 21
52.59683144712986
 31
0.0
  0
LINE
  5
2A7
330
125
100
AcDbEntity
  8
0
  6
Continuous
 62
     4
370
    13
100
AcDbLine
 10
82.71829586807908
 20
51.79683144712985
 30
0.0
 11
95.71829586807908
 21
51.79683144712985
 31
0.0
  0
LINE
  5
2A8
330
125
100
AcDbEntity
  8
0
  6
Continuous
 62
     4
370
    13
100
AcDbLine
 10
82.71829586807908
 20
44.59683144712986
 30
0.0
 11
95.71829586807908
 21
44.59683144712986
 31
0.0
  0
LINE
  5
2A9
330
125
100
AcDbEntity
  8
0
  6
Continuous
 62
     4
370
    13
100
AcDbLine
 10
95.71829586807908
 20
44.59683144712986
 30
0.0
 11
95.71829586807908
 21
51.79683144712985
 31
0.0
  0
LINE
  5
2AA
330
125
100
AcDbEntity
  8
0
  6
Continuous
 62
     4
370
    13
100
AcDbLine
 10
95.71829586807908
 20
51.79683144712985
 30
0.0
 11
94.91829586807908
 21
52.59683144712986
 31
0.0
  0
LINE
  5
2AB
330
125
100
AcDbEntity
  8
0
  6
Continuous
 62
     4
370
    13
100
AcDbLine
 10
83.5182958680791
 20
52.59683144712986
 30
0.0
 11
94.91829586807908
 21
52.59683144712986
 31
0.0
  0
LINE
  5
2AC
330
125
100
AcDbEntity
  8
0
  6
Continuous
 62
     4
370
    13
100
AcDbLine
 10
85.21829586807908
 20
20.79683144712985
 30
0.0
 11
93.21829586807908
 21
20.79683144712985
 31
0.0
  0
LINE
  5
2AD
330
125
100
AcDbEntity
  8
0
  6
Continuous
 62
     4
370
    13
100
AcDbLine
 10
86.41829586807908
 20
19.59683144712985
 30
0.0
 11
92.0182958680791
 21
19.59683144712986
 31
0.0
  0
LINE
  5
2AE
330
125
100
AcDbEntity
  8
0
  6
Continuous
 62
     4
370
    13
100
AcDbLine
 10
85.21829586807908
 20
20.79683144712985
 30
0.0
 11
86.41829586807908
 21
19.59683144712985
 31
0.0
  0
LINE
  5
2AF
330
125
100
AcDbEntity
  8
0
  6
Continuous
 62
     4
370
    13
100
AcDbLine
 10
93.21829586807908
 20
20.79683144712985
 30
0.0
 11
92.0182958680791
 21
19.59683144712986
 31
0.0
  0
LINE
  5
2B0
330
125
100
AcDbEntity
  8
0
  6
Continuous
 62
     4
370
    13
100
AcDbLine
 10
93.21829586807908
 20
31.59683144712985
 30
0.0
 11
93.21829586807908
 21
20.79683144712985
 31
0.0
  0
LINE
  5
2B1
330
125
100
AcDbEntity
  8
0
  6
Continuous
 62
     4
370
    13
100
AcDbLine
 10
92.54179586807909
 20
31.59683144712985
 30
0.0
 11
92.54179586807909
 21
20.12033144712985
 31
0.0
  0
LINE
  5
2B2
330
125
100
AcDbEntity
  8
0
  6
Continuous
 62
     4
370
    13
100
AcDbLine
 10
85.21829586807908
 20
31.59683144712985
 30
0.0
 11
85.21829586807908
 21
20.79683144712985
 31
0.0
  0
LINE
  5
2B3
330
125
100
AcDbEntity
  8
0
  6
Continuous
 62
     4
370
    13
100
AcDbLine
 10
85.89479586807909
 20
31.59683144712985
 30
0.0
 11
85.89479586807909
 21
20.12033144712985
 31
0.0
  0
LINE
  5
2B4
330
125
100
AcDbEntity
  8
0
  6
DASHED2
 62
     4
370
    13
100
AcDbLine
 10
85.21829586807908
 20
43.57683144712986
 30
0.0
 11
85.89479586807909
 21
41.07683144712986
 31
0.0
  0
LINE
  5
2B5
330
125
100
AcDbEntity
  8
0
  6
DASHED2
 62
     4
370
    13
100
AcDbLine
 10
85.21829586807908
 20
41.07683144712986
 30
0.0
 11
93.21829586807908
 21
41.07683144712986
 31
0.0
  0
LINE
  5
2B6
330
125
100
AcDbEntity
  8
0
  6
DASHED2
 62
     4
370
    13
100
AcDbLine
 10
93.21829586807908
 20
43.57683144712986
 30
0.0
 11
92.54179586807909
 21
41.07683144712986
 31
0.0
  0
ARC
  5
2B7
330
125
100
AcDbEntity
  8
0
  6
DASHED2
 62
     4
370
    13
100
AcDbCircle
 10
84.61829586807909
 20
44.19683144712985
 30
0.0
 40
0.4000000000000004
100
AcDbArc
 50
17.87869659584152
 51
90.00000000000001
  0
ARC
  5
2B8
330
125
100
AcDbEntity
  8
0
  6
DASHED2
 62
     4
370
    13
100
AcDbCircle
 10
93.81829586807909
 20
44.19683144712985
 30
0.0
 40
0.4000000000000016
100
AcDbArc
 50
90.00000000000001
 51
162.1213034041585
  0
ARC
  5
2B9
330
125
100
AcDbEntity
  8
0
  6
DASHED2
 62
     4
370
    13
100
AcDbCircle
 10
84.81829586807909
 20
43.57683144712986
 30
0.0
 40
0.4000000000000016
100
AcDbArc
 50
0.000000000000007
 51
17.87869659584152
  0
ARC
  5
2BA
330
125
100
AcDbEntity
  8
0
  6
DASHED2
 62
     4
370
    13
100
AcDbCircle
 10
93.61829586807909
 20
43.57683144712986
 30
0.0
 40
0.3999999999999986
100
AcDbArc
 50
162.1213034041585
 51
180.0
  0
LINE
  5
2BB
330
125
100
AcDbEntity
  8
0
  6
DASHED2
 62
     4
370
    13
100
AcDbLine
 10
85.19897931518331
 20
43.69963255909896
 30
0.0
 11
84.9989793151833
 21
44.31963255909896
 31
0.0
  0
LINE
  5
2BC
330
125
100
AcDbEntity
  8
0
  6
DASHED2
 62
     4
370
    13
100
AcDbLine
 10
93.23761242097487
 20
43.69963255909896
 30
0.0
 11
93.43761242097487
 21
44.31963255909896
 31
0.0
  0
LINE
  5
2BD
330
125
100
AcDbEntity
  8
0
  6
DASHED2
 62
     4
370
    13
100
AcDbLine
 10
93.21829586807908
 20
43.57683144712986
 30
0.0
 11
93.21829586807908
 21
31.59683144712985
 31
0.0
  0
LINE
  5
2BE
330
125
100
AcDbEntity
  8
0
  6
DASHED2
 62
     4
370
    13
100
AcDbLine
 10
92.54179586807909
 20
41.07683144712986
 30
0.0
 11
92.54179586807909
 21
31.59683144712985
 31
0.0
  0
LINE
  5
2BF
330
125
100
AcDbEntity
  8
0
  6
DASHED2
 62
     4
370
    13
100
AcDbLine
 10
85.21829586807908
 20
43.57683144712986
 30
0.0
 11
85.21829586807908
 21
31.59683144712985
 31
0.0
  0
LINE
  5
2C0
330
125
100
AcDbEntity
  8
0
  6
DASHED2
 62
     4
370
    13
100
AcDbLine
 10
85.89479586807909
 20
41.07683144712986
 30
0.0
 11
85.89479586807909
 21
31.59683144712985
 31
0.0
  0
LINE
  5
2C1
330
125
100
AcDbEntity
  8
0
  6
CENTER
 62
     2
370
    13
100
AcDbLine
 10
89.21829586807908
 20
53.89683144712986
 30
0.0
 11
89.21829586807908
 21
18.29683144712985
 31
0.0
  0
ENDBLK
  5
127
330
125
100
AcDbEntity
  8
0
100
AcDbBlockEnd
  0
BLOCK
  5
129
330
128
100
AcDbEntity
  8
0
100
AcDbBlockBegin
  2
DC_GROUP_COM-2117  PSLJC2-00S304A_31
 70
     0
 10
0.0
 20
0.0
 30
0.0
  3
DC_GROUP_COM-2117  PSLJC2-00S304A_31
  1

  0
LINE
  5
2C2
330
128
100
AcDbEntity
  8
0
  6
Continuous
 62
     3
370
    18
100
AcDbLine
 10
79.71829586807911
 20
4.096831447129858
 30
0.0
 11
98.71829586807911
 21
4.096831447129858
 31
0.0
  0
ARC
  5
2C3
330
128
100
AcDbEntity
  8
0
  6
Continuous
 62
     3
370
    18
100
AcDbCircle
 10
87.52659762139481
 20
2.356020219808862
 30
0.0
 40
8.0
100
AcDbArc
 50
122.5841504300579
 51
167.4318091728248
  0
ARC
  5
2C4
330
128
100
AcDbEntity
  8
0
  6
Continuous
 62
     3
370
    18
100
AcDbCircle
 10
90.9099941147634
 20
2.356020219808862
 30
0.0
 40
7.999999999999999
100
AcDbArc
 50
12.56819082717523
 51
57.4158495699421
  0
LINE
  5
2C5
330
128
100
AcDbEntity
  8
0
  6
DASHED2
 62
     4
370
    13
100
AcDbLine
 10
80.9182958680791
 20
-35.90316855287014
 30
0.0
 11
80.9182958680791
 21
4.096831447129858
 31
0.0
  0
LINE
  5
2C6
330
128
100
AcDbEntity
  8
0
  6
DASHED2
 62
     4
370
    13
100
AcDbLine
 10
97.51829586807911
 20
4.096831447129858
 30
0.0
 11
97.51829586807911
 21
-35.90316855287014
 31
0.0
  0
ARC
  5
2C7
330
128
100
AcDbEntity
  8
0
  6
DASHED2
 62
     4
370
    13
100
AcDbCircle
 10
88.7265976213948
 20
2.356020219808862
 30
0.0
 40
7.999999999999999
100
AcDbArc
 50
122.5841504300579
 51
167.4318091728248
  0
ARC
  5
2C8
330
128
100
AcDbEntity
  8
0
  6
DASHED2
 62
     4
370
    13
100
AcDbCircle
 10
89.70999411476339
 20
2.356020219808862
 30
0.0
 40
7.999999999999999
100
AcDbArc
 50
12.56819082717523
 51
57.41584956994211
  0
INSERT
  5
2C9
330
128
100
AcDbEntity
  8
0
  6
Continuous
100
AcDbBlockReference
  2
DC_GROUP_COM-2117  PSLJC2-00S304A_32
 10
0.0
 20
0.0
 30
0.0
  0
ENDBLK
  5
12A
330
128
100
AcDbEntity
  8
0
100
AcDbBlockEnd
  0
BLOCK
  5
12C
330
12B
100
AcDbEntity
  8
0
100
AcDbBlockBegin
  2
DC_GROUP_COM-2117  PSLJC2-00S304A_32
 70
     0
 10
0.0
 20
0.0
 30
0.0
  3
DC_GROUP_COM-2117  PSLJC2-00S304A_32
  1

  0
LINE
  5
2CA
330
12B
100
AcDbEntity
  8
0
  6
Continuous
 62
     3
370
    18
100
AcDbLine
 10
79.71829586807911
 20
-35.90316855287014
 30
0.0
 11
98.71829586807911
 21
-35.90316855287014
 31
0.0
  0
LINE
  5
2CB
330
12B
100
AcDbEntity
  8
0
  6
Continuous
 62
     3
370
    18
100
AcDbLine
 10
83.21829586807911
 20
9.096831447129858
 30
0.0
 11
95.21829586807911
 21
9.096831447129858
 31
0.0
  0
LINE
  5
2CC
330
12B
100
AcDbEntity
  8
0
  6
Continuous
 62
     3
370
    18
100
AcDbLine
 10
98.71829586807911
 20
-35.90316855287014
 30
0.0
 11
98.71829586807911
 21
4.096831447129858
 31
0.0
  0
LINE
  5
2CD
330
12B
100
AcDbEntity
  8
0
  6
Continuous
 62
     3
370
    18
100
AcDbLine
 10
79.71829586807911
 20
4.096831447129858
 30
0.0
 11
79.71829586807911
 21
-35.90316855287014
 31
0.0
  0
ENDBLK
  5
12D
330
12B
100
AcDbEntity
  8
0
100
AcDbBlockEnd
  0
BLOCK
  5
12F
330
12E
100
AcDbEntity
  8
0
100
AcDbBlockBegin
  2
DC_GROUP_COM-2117  PSLJC2-00S304A_33
 70
     0
 10
0.0
 20
0.0
 30
0.0
  3
DC_GROUP_COM-2117  PSLJC2-00S304A_33
  1

  0
LINE
  5
2CE
330
12E
100
AcDbEntity
  8
0
  6
DASHED2
 62
     4
370
    13
100
AcDbLine
 10
-79.01811594202897
 20
-35.90316855287014
 30
0.0
 11
-79.01811594202897
 21
-37.90316855287014
 31
0.0
  0
LINE
  5
2CF
330
12E
100
AcDbEntity
  8
0
  6
DASHED2
 62
     4
370
    13
100
AcDbLine
 10
-70.51965363892029
 20
-35.90316855287014
 30
0.0
 11
-70.51965363892029
 21
-37.90316855287014
 31
0.0
  0
LINE
  5
2D0
330
12E
100
AcDbEntity
  8
0
  6
DASHED2
 62
     4
370
    13
100
AcDbLine
 10
-28.51811594202898
 20
-35.90316855287014
 30
0.0
 11
-28.51811594202898
 21
-37.90316855287014
 31
0.0
  0
LINE
  5
2D1
330
12E
100
AcDbEntity
  8
0
  6
DASHED2
 62
     4
370
    13
100
AcDbLine
 10
-37.01657824513766
 20
-35.90316855287014
 30
0.0
 11
-37.01657824513766
 21
-37.90316855287014
 31
0.0
  0
LINE
  5
2D2
330
12E
100
AcDbEntity
  8
0
  6
CENTER
 62
     2
370
    13
100
AcDbLine
 10
-74.76811594202897
 20
-30.79447496064815
 30
0.0
 11
-74.76811594202897
 21
-42.82627146303288
 31
0.0
  0
LINE
  5
2D3
330
12E
100
AcDbEntity
  8
0
  6
CENTER
 62
     2
370
    13
100
AcDbLine
 10
-32.76811594202898
 20
-30.79447496064815
 30
0.0
 11
-32.76811594202898
 21
-42.82627146303288
 31
0.0
  0
INSERT
  5
2D4
330
12E
100
AcDbEntity
  8
0
  6
Continuous
100
AcDbBlockReference
  2
DC_GROUP_COM-2117  PSLJC2-00S304A_34
 10
0.0
 20
0.0
 30
0.0
  0
ENDBLK
  5
130
330
12E
100
AcDbEntity
  8
0
100
AcDbBlockEnd
  0
BLOCK
  5
132
330
131
100
AcDbEntity
  8
0
100
AcDbBlockBegin
  2
DC_GROUP_COM-2117  PSLJC2-00S304A_34
 70
     0
 10
0.0
 20
0.0
 30
0.0
  3
DC_GROUP_COM-2117  PSLJC2-00S304A_34
  1

  0
LINE
  5
2D5
330
131
100
AcDbEntity
  8
0
  6
CENTER
 62
     2
370
    13
100
AcDbLine
 10
-53.76811594202898
 20
-28.64696449265907
 30
0.0
 11
-53.76811594202898
 21
-89.41080633962106
 31
0.0
  0
LINE
  5
2D6
330
131
100
AcDbEntity
  8
0
  6
CENTER
 62
     2
370
    13
100
AcDbLine
 10
-88.47273737550844
 20
-59.71736432246134
 30
0.0
 11
-18.05542470410311
 21
-59.71736432246134
 31
0.0
  0
LINE
  5
2D7
330
131
100
AcDbEntity
  8
0
  6
Continuous
 62
     3
370
    18
100
AcDbLine
 10
-83.76811594202897
 20
-37.90316855287014
 30
0.0
 11
-23.76811594202898
 21
-37.90316855287014
 31
0.0
  0
LINE
  5
2D8
330
131
100
AcDbEntity
  8
0
  6
Continuous
 62
     3
370
    18
100
AcDbLine
 10
-58.13420802325343
 20
-57.96736432246134
 30
0.0
 11
-58.13420802325343
 21
-61.46736432246134
 31
0.0
  0
LINE
  5
2D9
330
131
100
AcDbEntity
  8
0
  6
Continuous
 62
     3
370
    18
100
AcDbLine
 10
-49.63420802325343
 20
-57.96736432246134
 30
0.0
 11
-49.63420802325343
 21
-61.46736432246134
 31
0.0
  0
ARC
  5
2DA
330
131
100
AcDbEntity
  8
0
  6
Continuous
 62
     3
370
    18
100
AcDbCircle
 10
-53.88420802325343
 20
-61.46736432246134
 30
0.0
 40
4.25
100
AcDbArc
 50
180.0
 51
0.0
  0
ARC
  5
2DB
330
131
100
AcDbEntity
  8
0
  6
Continuous
 62
     3
370
    18
100
AcDbCircle
 10
-53.88420802325343
 20
-57.96736432246134
 30
0.0
 40
4.25
100
AcDbArc
 50
0.0
 51
180.0
  0
INSERT
  5
2DC
330
131
100
AcDbEntity
  8
0
  6
Continuous
100
AcDbBlockReference
  2
DC_GROUP_COM-2117  PSLJC2-00S304A_35
 10
0.0
 20
0.0
 30
0.0
  0
ENDBLK
  5
133
330
131
100
AcDbEntity
  8
0
100
AcDbBlockEnd
  0
BLOCK
  5
135
330
134
100
AcDbEntity
  8
0
100
AcDbBlockBegin
  2
DC_GROUP_COM-2117  PSLJC2-00S304A_35
 70
     0
 10
0.0
 20
0.0
 30
0.0
  3
DC_GROUP_COM-2117  PSLJC2-00S304A_35
  1

  0
LINE
  5
2DD
330
134
100
AcDbEntity
  8
0
  6
Continuous
 62
     3
370
    18
100
AcDbLine
 10
-83.76811594202897
 20
-35.90316855287014
 30
0.0
 11
-83.76811594202897
 21
-71.90316855287014
 31
0.0
  0
LINE
  5
2DE
330
134
100
AcDbEntity
  8
0
  6
Continuous
 62
     3
370
    18
100
AcDbLine
 10
-23.76811594202898
 20
-71.90316855287014
 30
0.0
 11
-23.76811594202898
 21
-35.90316855287014
 31
0.0
  0
LINE
  5
2DF
330
134
100
AcDbEntity
  8
0
  6
Continuous
 62
     3
370
    18
100
AcDbLine
 10
-79.76811594202897
 20
-75.90316855287014
 30
0.0
 11
-27.76811594202898
 21
-75.90316855287014
 31
0.0
  0
LINE
  5
2E0
330
134
100
AcDbEntity
  8
0
  6
Continuous
 62
     3
370
    18
100
AcDbLine
 10
-83.76811594202897
 20
-35.90316855287014
 30
0.0
 11
-23.76811594202898
 21
-35.90316855287014
 31
0.0
  0
ARC
  5
2E1
330
134
100
AcDbEntity
  8
0
  6
Continuous
 62
     3
370
    18
100
AcDbCircle
 10
-79.76811594202897
 20
-71.90316855287014
 30
0.0
 40
4.0
100
AcDbArc
 50
180.0
 51
270.0
  0
ARC
  5
2E2
330
134
100
AcDbEntity
  8
0
  6
Continuous
 62
     3
370
    18
100
AcDbCircle
 10
-27.76811594202898
 20
-71.90316855287014
 30
0.0
 40
4.0
100
AcDbArc
 50
270.0
 51
0.0
  0
ENDBLK
  5
136
330
134
100
AcDbEntity
  8
0
100
AcDbBlockEnd
  0
BLOCK
  5
138
330
137
100
AcDbEntity
  8
0
100
AcDbBlockBegin
  2
DC_GROUP_COM-2117  PSLJC2-00S304A_36
 70
     0
 10
0.0
 20
0.0
 30
0.0
  3
DC_GROUP_COM-2117  PSLJC2-00S304A_36
  1

  0
LINE
  5
2E3
330
137
100
AcDbEntity
  8
0
  6
CENTER
 62
     2
370
    13
100
AcDbLine
 10
105.3355052283869
 20
-59.71736432246136
 30
0.0
 11
117.5885639136706
 21
-59.71736432246136
 31
0.0
  0
INSERT
  5
2E4
330
137
100
AcDbEntity
  8
0
  6
Continuous
100
AcDbBlockReference
  2
DC_GROUP_COM-2117  PSLJC2-00S304A_37
 10
0.0
 20
0.0
 30
0.0
  0
ENDBLK
  5
139
330
137
100
AcDbEntity
  8
0
100
AcDbBlockEnd
  0
BLOCK
  5
13B
330
13A
100
AcDbEntity
  8
0
100
AcDbBlockBegin
  2
DC_GROUP_COM-2117  PSLJC2-00S304A_37
 70
     0
 10
0.0
 20
0.0
 30
0.0
  3
DC_GROUP_COM-2117  PSLJC2-00S304A_37
  1

  0
INSERT
  5
2E5
330
13A
100
AcDbEntity
  8
0
  6
Continuous
100
AcDbBlockReference
  2
DC_GROUP_COM-2117  PSLJC2-00S304A_38
 10
0.0
 20
0.0
 30
0.0
  0
ENDBLK
  5
13C
330
13A
100
AcDbEntity
  8
0
100
AcDbBlockEnd
  0
BLOCK
  5
13E
330
13D
100
AcDbEntity
  8
0
100
AcDbBlockBegin
  2
DC_GROUP_COM-2117  PSLJC2-00S304A_38
 70
     0
 10
0.0
 20
0.0
 30
0.0
  3
DC_GROUP_COM-2117  PSLJC2-00S304A_38
  1

  0
LINE
  5
2E6
330
13D
100
AcDbEntity
  8
0
  6
Continuous
 62
     3
370
    18
100
AcDbLine
 10
73.21447086472662
 20
-35.90316855287013
 30
0.0
 11
109.2144708647266
 21
-35.90316855287013
 31
0.0
  0
LINE
  5
2E7
330
13D
100
AcDbEntity
  8
0
  6
Continuous
 62
     3
370
    18
100
AcDbLine
 10
113.2144708647266
 20
-39.90316855287013
 30
0.0
 11
113.2144708647266
 21
-75.90316855287013
 31
0.0
  0
LINE
  5
2E8
330
13D
100
AcDbEntity
  8
0
  6
Continuous
 62
     3
370
    18
100
AcDbLine
 10
111.2144708647266
 20
-75.90316855287013
 30
0.0
 11
113.2144708647266
 21
-75.90316855287013
 31
0.0
  0
LINE
  5
2E9
330
13D
100
AcDbEntity
  8
0
  6
Continuous
 62
     3
370
    18
100
AcDbLine
 10
73.21447086472662
 20
-35.90316855287013
 30
0.0
 11
73.21447086472662
 21
-37.90316855287013
 31
0.0
  0
LINE
  5
2EA
330
13D
100
AcDbEntity
  8
0
  6
Continuous
 62
     3
370
    18
100
AcDbLine
 10
73.21447086472662
 20
-37.90316855287013
 30
0.0
 11
109.2144708647266
 21
-37.90316855287013
 31
0.0
  0
LINE
  5
2EB
330
13D
100
AcDbEntity
  8
0
  6
Continuous
 62
     3
370
    18
100
AcDbLine
 10
111.2144708647266
 20
-39.90316855287013
 30
0.0
 11
111.2144708647266
 21
-75.90316855287013
 31
0.0
  0
ARC
  5
2EC
330
13D
100
AcDbEntity
  8
0
  6
Continuous
 62
     3
370
    18
100
AcDbCircle
 10
109.2144708647266
 20
-39.90316855287013
 30
0.0
 40
2.0
100
AcDbArc
 50
0.0
 51
90.0
  0
ARC
  5
2ED
330
13D
100
AcDbEntity
  8
0
  6
Continuous
 62
     3
370
    18
100
AcDbCircle
 10
109.2144708647266
 20
-39.90316855287013
 30
0.0
 40
4.0
100
AcDbArc
 50
0.0
 51
90.0
  0
LINE
  5
2EE
330
13D
100
AcDbEntity
  8
0
  6
DASHED2
 62
     4
370
    13
100
AcDbLine
 10
111.1720864955503
 20
-53.71736432246136
 30
0.0
 11
113.1991524327804
 21
-53.71736432246136
 31
0.0
  0
LINE
  5
2EF
330
13D
100
AcDbEntity
  8
0
  6
DASHED2
 62
     4
370
    13
100
AcDbLine
 10
111.1087406850118
 20
-65.71736432246136
 30
0.0
 11
113.2624982433188
 21
-65.71736432246136
 31
0.0
  0
LINE
  5
2F0
330
13D
100
AcDbEntity
  8
0
  6
DASHED2
 62
     4
370
    13
100
AcDbLine
 10
83.34767084669059
 20
-35.90316855287013
 30
0.0
 11
83.34767084669059
 21
-37.90316855287013
 31
0.0
  0
LINE
  5
2F1
330
13D
100
AcDbEntity
  8
0
  6
DASHED2
 62
     4
370
    13
100
AcDbLine
 10
95.3324960391702
 20
-35.90316855287013
 30
0.0
 11
95.3324960391702
 21
-37.90316855287013
 31
0.0
  0
LINE
  5
2F2
330
13D
100
AcDbEntity
  8
0
  6
CENTER
 62
     2
370
    13
100
AcDbLine
 10
89.21447086472662
 20
-32.79626251478012
 30
0.0
 11
89.21447086472662
 21
-47.4606116856084
 31
0.0
  0
ENDBLK
  5
13F
330
13D
100
AcDbEntity
  8
0
100
AcDbBlockEnd
  0
BLOCK
  5
141
330
140
100
AcDbEntity
  8
0
100
AcDbBlockBegin
  2
*D48
 70
     1
 10
0.0
 20
0.0
 30
0.0
  3
*D48
  1

  0
LINE
  5
2F3
330
140
100
AcDbEntity
  8
0
  6
Continuous
 62
     2
370
    13
100
AcDbLine
 10
18.17391304347826
 20
-75.90316855287014
 30
0.0
 11
18.17391304347826
 21
-35.90316855287013
 31
0.0
  0
INSERT
  5
2F4
330
140
100
AcDbEntity
  8
0
 62
     2
100
AcDbBlockReference
  2
_Open30
 10
18.17391304347826
 20
-75.90316855287014
 30
0.0
 41
3.000002807615286
 42
2.999989368223643
 50
270.0
  0
INSERT
  5
2F5
330
140
100
AcDbEntity
  8
0
 62
     2
100
AcDbBlockReference
  2
_Open30
 10
18.17391304347826
 20
-35.90316855287013
 30
0.0
 41
3.000002807615286
 42
2.999989368223643
 50
90.0
  0
LINE
  5
2F6
330
140
100
AcDbEntity
  8
0
  6
Continuous
 62
     2
370
    13
100
AcDbLine
 10
-25.76811594202898
 20
-75.90316855287014
 30
0.0
 11
19.17391304347826
 21
-75.90316855287014
 31
0.0
  0
LINE
  5
2F7
330
140
100
AcDbEntity
  8
0
  6
Continuous
 62
     2
370
    13
100
AcDbLine
 10
-9.108695652173893
 20
-35.90316855287014
 30
0.0
 11
19.17391304347826
 21
-35.90316855287013
 31
0.0
  0
MTEXT
  5
2F8
330
140
100
AcDbEntity
  8
0
 62
     4
100
AcDbMText
 10
16.17391304347826
 20
-55.78514337842652
 30
0.0
 40
4.5
 41
0.0
 46
0.0
 71
     8
 72
     1
  1
\T1.00;\W0.5000;40
  7
dcStyle0
 11
6.123233995736766E-17
 21
1.0
 31
0.0
 73
     1
 44
1.0
  0
ENDBLK
  5
142
330
140
100
AcDbEntity
  8
0
100
AcDbBlockEnd
  0
BLOCK
  5
144
330
143
100
AcDbEntity
  8
0
100
AcDbBlockBegin
  2
*D49
 70
     1
 10
0.0
 20
0.0
 30
0.0
  3
*D49
  1

  0
LINE
  5
2F9
330
143
100
AcDbEntity
  8
0
  6
Continuous
 62
     2
370
    13
100
AcDbLine
 10
-92.06521739130436
 20
-59.71736432246134
 30
0.0
 11
-92.06521739130436
 21
-37.90316855287014
 31
0.0
  0
LINE
  5
2FA
330
143
100
AcDbEntity
  8
0
  6
Continuous
 62
     2
370
    13
100
AcDbLine
 10
-89.47273737550844
 20
-59.71736432246134
 30
0.0
 11
-93.06521739130436
 21
-59.71736432246134
 31
0.0
  0
LINE
  5
2FB
330
143
100
AcDbEntity
  8
0
  6
Continuous
 62
     2
370
    13
100
AcDbLine
 10
-85.76811594202897
 20
-37.90316855287014
 30
0.0
 11
-93.06521739130436
 21
-37.90316855287014
 31
0.0
  0
LINE
  5
2FC
330
143
100
AcDbEntity
  8
0
  6
Continuous
 62
     2
370
    13
100
AcDbLine
 10
-92.06521739130436
 20
-79.58695652173914
 30
0.0
 11
-92.06521739130436
 21
-59.71736432246134
 31
0.0
  0
INSERT
  5
2FD
330
143
100
AcDbEntity
  8
0
 62
     2
100
AcDbBlockReference
  2
_Open30
 10
-92.06521739130436
 20
-59.71736432246134
 30
0.0
 41
3.000002807615286
 42
2.999989368223643
 50
90.0
  0
MTEXT
  5
2FE
330
143
100
AcDbEntity
  8
0
 62
     4
100
AcDbMText
 10
-93.06521739130436
 20
-69.58695652173914
 30
0.0
 40
4.5
 41
0.0
 46
0.0
 71
     9
 72
     1
  1
\T1.00;\W0.5000;21.8
  7
dcStyle0
 11
6.123233995736766E-17
 21
1.0
 31
0.0
 73
     1
 44
1.0
  0
ENDBLK
  5
145
330
143
100
AcDbEntity
  8
0
100
AcDbBlockEnd
  0
BLOCK
  5
147
330
146
100
AcDbEntity
  8
0
100
AcDbBlockBegin
  2
*D50
 70
     1
 10
0.0
 20
0.0
 30
0.0
  3
*D50
  1

  0
LINE
  5
2FF
330
146
100
AcDbEntity
  8
0
  6
Continuous
 62
     2
370
    13
100
AcDbLine
 10
-92.06521739130436
 20
-37.90316855287014
 30
0.0
 11
-92.06521739130436
 21
-35.90316855287014
 31
0.0
  0
INSERT
  5
305
330
146
100
AcDbEntity
  8
0
 62
     2
100
AcDbBlockReference
  2
_Dot
 10
-92.06521739130436
 20
-37.90316855287014
 30
0.0
 41
2.5
 42
2.5
 50
270.0
  0
LINE
  5
306
330
146
100
AcDbEntity
  8
0
  6
Continuous
 62
     2
370
    13
100
AcDbLine
 10
-85.76811594202897
 20
-37.90316855287014
 30
0.0
 11
-93.06521739130436
 21
-37.90316855287014
 31
0.0
  0
LINE
  5
307
330
146
100
AcDbEntity
  8
0
  6
Continuous
 62
     2
370
    13
100
AcDbLine
 10
-85.76811594202897
 20
-35.90316855287014
 30
0.0
 11
-93.06521739130436
 21
-35.90316855287014
 31
0.0
  0
LINE
  5
308
330
146
100
AcDbEntity
  8
0
  6
Continuous
 62
     2
370
    13
100
AcDbLine
 10
-92.06521739130436
 20
-28.75538855287014
 30
0.0
 11
-92.06521739130436
 21
-35.90316855287014
 31
0.0
  0
INSERT
  5
309
330
146
100
AcDbEntity
  8
0
 62
     2
100
AcDbBlockReference
  2
_Open30
 10
-92.06521739130436
 20
-35.90316855287014
 30
0.0
 41
3.000002807615286
 42
2.999989368223643
 50
270.0
  0
MTEXT
  5
30A
330
146
100
AcDbEntity
  8
0
 62
     4
100
AcDbMText
 10
-93.06521739130436
 20
-32.00538855287014
 30
0.0
 40
4.5
 41
0.0
 46
0.0
 71
     7
 72
     1
  1
\T1.00;\W0.5000;2
  7
dcStyle0
 11
6.123233995736766E-17
 21
1.0
 31
0.0
 73
     1
 44
1.0
  0
ENDBLK
  5
148
330
146
100
AcDbEntity
  8
0
100
AcDbBlockEnd
  0
BLOCK
  5
14A
330
149
100
AcDbEntity
  8
0
100
AcDbBlockBegin
  2
*D51
 70
     1
 10
0.0
 20
0.0
 30
0.0
  3
*D51
  1

  0
LINE
  5
30B
330
149
100
AcDbEntity
  8
0
  6
Continuous
 62
     2
370
    13
100
AcDbLine
 10
89.21447086472662
 20
-83.48180341466785
 30
0.0
 11
111.2144708647266
 21
-83.48180341466785
 31
0.0
  0
INSERT
  5
30C
330
149
100
AcDbEntity
  8
0
 62
     2
100
AcDbBlockReference
  2
_Open30
 10
89.21447086472662
 20
-83.48180341466785
 30
0.0
 41
3.000002807615286
 42
2.999989368223643
 50
180.0
  0
INSERT
  5
30D
330
149
100
AcDbEntity
  8
0
 62
     2
100
AcDbBlockReference
  2
_Open30
 10
111.2144708647266
 20
-83.48180341466785
 30
0.0
 41
3.000002807615286
 42
2.999989368223643
 50
360.0
  0
LINE
  5
30E
330
149
100
AcDbEntity
  8
0
  6
Continuous
 62
     2
370
    13
100
AcDbLine
 10
89.21447086472662
 20
-49.4606116856084
 30
0.0
 11
89.21447086472662
 21
-84.48180341466785
 31
0.0
  0
LINE
  5
30F
330
149
100
AcDbEntity
  8
0
  6
Continuous
 62
     2
370
    13
100
AcDbLine
 10
111.2144708647266
 20
-77.90316855287013
 30
0.0
 11
111.2144708647266
 21
-84.48180341466785
 31
0.0
  0
MTEXT
  5
310
330
149
100
AcDbEntity
  8
0
 62
     4
100
AcDbMText
 10
100.2144708647266
 20
-81.48180341466785
 30
0.0
 40
4.5
 41
0.0
 46
0.0
 71
     8
 72
     1
  1
\T1.00;\W0.5000;22
  7
dcStyle0
 73
     1
 44
1.0
  0
ENDBLK
  5
14B
330
149
100
AcDbEntity
  8
0
100
AcDbBlockEnd
  0
BLOCK
  5
14D
330
14C
100
AcDbEntity
  8
0
100
AcDbBlockBegin
  2
*D52
 70
     1
 10
0.0
 20
0.0
 30
0.0
  3
*D52
  1

  0
LINE
  5
311
330
14C
100
AcDbEntity
  8
0
  6
Continuous
 62
     2
370
    13
100
AcDbLine
 10
111.2144708647266
 20
-83.48180341466785
 30
0.0
 11
113.2144708647266
 21
-83.48180341466785
 31
0.0
  0
LINE
  5
312
330
14C
100
AcDbEntity
  8
0
  6
Continuous
 62
     2
370
    13
100
AcDbLine
 10
111.2144708647266
 20
-77.90316855287013
 30
0.0
 11
111.2144708647266
 21
-84.48180341466785
 31
0.0
  0
LINE
  5
313
330
14C
100
AcDbEntity
  8
0
  6
Continuous
 62
     2
370
    13
100
AcDbLine
 10
113.2144708647266
 20
-77.90316855287013
 30
0.0
 11
113.2144708647266
 21
-84.48180341466785
 31
0.0
  0
LINE
  5
314
330
14C
100
AcDbEntity
  8
0
  6
Continuous
 62
     2
370
    13
100
AcDbLine
 10
120.3622508647266
 20
-83.48180341466785
 30
0.0
 11
113.2144708647266
 21
-83.48180341466785
 31
0.0
  0
INSERT
  5
315
330
14C
100
AcDbEntity
  8
0
 62
     2
100
AcDbBlockReference
  2
_Open30
 10
113.2144708647266
 20
-83.48180341466785
 30
0.0
 41
3.000002807615286
 42
2.999989368223643
 50
180.0
  0
MTEXT
  5
316
330
14C
100
AcDbEntity
  8
0
 62
     4
100
AcDbMText
 10
117.1122508647266
 20
-82.48180341466785
 30
0.0
 40
4.5
 41
0.0
 46
0.0
 71
     7
 72
     1
  1
\T1.00;\W0.5000;2
  7
dcStyle0
 73
     1
 44
1.0
  0
ENDBLK
  5
14E
330
14C
100
AcDbEntity
  8
0
100
AcDbBlockEnd
  0
BLOCK
  5
150
330
14F
100
AcDbEntity
  8
0
100
AcDbBlockBegin
  2
*D53
 70
     1
 10
0.0
 20
0.0
 30
0.0
  3
*D53
  1

  0
LINE
  5
317
330
14F
100
AcDbEntity
  8
0
  6
Continuous
 62
     2
370
    13
100
AcDbLine
 10
-83.76811594202897
 20
-90.49319140111979
 30
0.0
 11
-23.76811594202898
 21
-90.49319140111979
 31
0.0
  0
INSERT
  5
318
330
14F
100
AcDbEntity
  8
0
 62
     2
100
AcDbBlockReference
  2
_Open30
 10
-83.76811594202897
 20
-90.49319140111979
 30
0.0
 41
3.000002807615286
 42
2.999989368223643
 50
180.0
  0
INSERT
  5
319
330
14F
100
AcDbEntity
  8
0
 62
     2
100
AcDbBlockReference
  2
_Open30
 10
-23.76811594202898
 20
-90.49319140111979
 30
0.0
 41
3.000002807615286
 42
2.999989368223643
 50
360.0
  0
LINE
  5
31A
330
14F
100
AcDbEntity
  8
0
  6
Continuous
 62
     2
370
    13
100
AcDbLine
 10
-83.76811594202897
 20
-73.90316855287014
 30
0.0
 11
-83.76811594202897
 21
-91.49319140111979
 31
0.0
  0
LINE
  5
31B
330
14F
100
AcDbEntity
  8
0
  6
Continuous
 62
     2
370
    13
100
AcDbLine
 10
-23.76811594202898
 20
-73.90316855287014
 30
0.0
 11
-23.76811594202898
 21
-91.49319140111979
 31
0.0
  0
MTEXT
  5
31C
330
14F
100
AcDbEntity
  8
0
 62
     4
100
AcDbMText
 10
-53.76811594202898
 20
-88.49319140111979
 30
0.0
 40
4.5
 41
0.0
 46
0.0
 71
     8
 72
     1
  1
\T1.00;\W0.5000;60
  7
dcStyle0
 73
     1
 44
1.0
  0
ENDBLK
  5
151
330
14F
100
AcDbEntity
  8
0
100
AcDbBlockEnd
  0
BLOCK
  5
153
330
152
100
AcDbEntity
  8
0
100
AcDbBlockBegin
  2
*D54
 70
     1
 10
0.0
 20
0.0
 30
0.0
  3
*D54
  1

  0
LINE
  5
31D
330
152
100
AcDbEntity
  8
0
  6
Continuous
 62
     2
370
    13
100
AcDbLine
 10
-58.13420802325343
 20
-83.10257828160643
 30
0.0
 11
-49.63420802325343
 21
-83.10257828160643
 31
0.0
  0
INSERT
  5
31E
330
152
100
AcDbEntity
  8
0
 62
     2
100
AcDbBlockReference
  2
_Open30
 10
-58.13420802325343
 20
-83.10257828160643
 30
0.0
 41
3.000002807615286
 42
2.999989368223643
 50
180.0
  0
INSERT
  5
31F
330
152
100
AcDbEntity
  8
0
 62
     2
100
AcDbBlockReference
  2
_Open30
 10
-49.63420802325343
 20
-83.10257828160643
 30
0.0
 41
3.000002807615286
 42
2.999989368223643
 50
360.0
  0
LINE
  5
320
330
152
100
AcDbEntity
  8
0
  6
Continuous
 62
     2
370
    13
100
AcDbLine
 10
-58.13420802325343
 20
-63.46736432246134
 30
0.0
 11
-58.13420802325343
 21
-84.10257828160643
 31
0.0
  0
LINE
  5
321
330
152
100
AcDbEntity
  8
0
  6
Continuous
 62
     2
370
    13
100
AcDbLine
 10
-49.63420802325343
 20
-63.46736432246134
 30
0.0
 11
-49.63420802325343
 21
-84.10257828160643
 31
0.0
  0
MTEXT
  5
322
330
152
100
AcDbEntity
  8
0
 62
     4
100
AcDbMText
 10
-53.76811594202898
 20
-82.10257828160643
 30
0.0
 40
4.5
 41
0.0
 46
0.0
 71
     8
 72
     1
  1
\T1.00;\W0.5000;8.5
  7
dcStyle0
 73
     1
 44
1.0
  0
ENDBLK
  5
154
330
152
100
AcDbEntity
  8
0
100
AcDbBlockEnd
  0
BLOCK
  5
156
330
155
100
AcDbEntity
  8
0
100
AcDbBlockBegin
  2
*D55
 70
     1
 10
0.0
 20
0.0
 30
0.0
  3
*D55
  1

  0
LINE
  5
323
330
155
100
AcDbEntity
  8
0
  6
Continuous
 62
     2
370
    13
100
AcDbLine
 10
-100.195652173913
 20
-65.71736432246134
 30
0.0
 11
-100.195652173913
 21
-59.71736432246134
 31
0.0
  0
LINE
  5
324
330
155
100
AcDbEntity
  8
0
  6
Continuous
 62
     2
370
    13
100
AcDbLine
 10
-55.88420802325343
 20
-65.71736432246134
 30
0.0
 11
-101.195652173913
 21
-65.71736432246134
 31
0.0
  0
LINE
  5
325
330
155
100
AcDbEntity
  8
0
  6
Continuous
 62
     2
370
    13
100
AcDbLine
 10
-90.47273737550844
 20
-59.71736432246134
 30
0.0
 11
-101.195652173913
 21
-59.71736432246134
 31
0.0
  0
LINE
  5
326
330
155
100
AcDbEntity
  8
0
  6
Continuous
 62
     2
370
    13
100
AcDbLine
 10
-100.195652173913
 20
-73.07608695652173
 30
0.0
 11
-100.195652173913
 21
-65.71736432246134
 31
0.0
  0
INSERT
  5
327
330
155
100
AcDbEntity
  8
0
 62
     2
100
AcDbBlockReference
  2
_Open30
 10
-100.195652173913
 20
-65.71736432246134
 30
0.0
 41
3.000002807615286
 42
2.999989368223643
 50
90.0
  0
MTEXT
  5
328
330
155
100
AcDbEntity
  8
0
 62
     4
100
AcDbMText
 10
-101.195652173913
 20
-69.82608695652173
 30
0.0
 40
4.5
 41
0.0
 46
0.0
 71
     9
 72
     1
  1
\T1.00;\W0.5000;6
  7
dcStyle0
 11
6.123233995736766E-17
 21
1.0
 31
0.0
 73
     1
 44
1.0
  0
ENDBLK
  5
157
330
155
100
AcDbEntity
  8
0
100
AcDbBlockEnd
  0
BLOCK
  5
159
330
158
100
AcDbEntity
  8
0
100
AcDbBlockBegin
  2
*D56
 70
     1
 10
0.0
 20
0.0
 30
0.0
  3
*D56
  1

  0
LINE
  5
329
330
158
100
AcDbEntity
  8
0
  6
Continuous
 62
     2
370
    13
100
AcDbLine
 10
-100.195652173913
 20
-59.71736432246134
 30
0.0
 11
-100.195652173913
 21
-53.71736432246134
 31
0.0
  0
INSERT
  5
32A
330
158
100
AcDbEntity
  8
0
 62
     2
100
AcDbBlockReference
  2
_Dot
 10
-100.195652173913
 20
-59.71736432246134
 30
0.0
 41
2.5
 42
2.5
 50
270.0
  0
LINE
  5
32B
330
158
100
AcDbEntity
  8
0
  6
Continuous
 62
     2
370
    13
100
AcDbLine
 10
-90.47273737550844
 20
-59.71736432246134
 30
0.0
 11
-101.195652173913
 21
-59.71736432246134
 31
0.0
  0
LINE
  5
32C
330
158
100
AcDbEntity
  8
0
  6
Continuous
 62
     2
370
    13
100
AcDbLine
 10
-55.88420802325343
 20
-53.71736432246134
 30
0.0
 11
-101.195652173913
 21
-53.71736432246134
 31
0.0
  0
LINE
  5
32D
330
158
100
AcDbEntity
  8
0
  6
Continuous
 62
     2
370
    13
100
AcDbLine
 10
-100.195652173913
 20
-44.81521739130435
 30
0.0
 11
-100.195652173913
 21
-53.71736432246134
 31
0.0
  0
INSERT
  5
32E
330
158
100
AcDbEntity
  8
0
 62
     2
100
AcDbBlockReference
  2
_Open30
 10
-100.195652173913
 20
-53.71736432246134
 30
0.0
 41
3.000002807615286
 42
2.999989368223643
 50
270.0
  0
MTEXT
  5
32F
330
158
100
AcDbEntity
  8
0
 62
     4
100
AcDbMText
 10
-101.195652173913
 20
-48.06521739130435
 30
0.0
 40
4.5
 41
0.0
 46
0.0
 71
     7
 72
     1
  1
\T1.00;\W0.5000;6
  7
dcStyle0
 11
6.123233995736766E-17
 21
1.0
 31
0.0
 73
     1
 44
1.0
  0
ENDBLK
  5
15A
330
158
100
AcDbEntity
  8
0
100
AcDbBlockEnd
  0
BLOCK
  5
15C
330
15B
100
AcDbEntity
  8
0
100
AcDbBlockBegin
  2
DC_GROUP_COM-2117  PSLJC2-00S304A_39
 70
     0
 10
0.0
 20
0.0
 30
0.0
  3
DC_GROUP_COM-2117  PSLJC2-00S304A_39
  1

  0
LINE
  5
330
330
15B
100
AcDbEntity
  8
0
  6
DASHED2
 62
     4
370
    18
100
AcDbLine
 10
-58.13420802325345
 20
129.3238845872264
 30
0.0
 11
-58.13420802325345
 21
127.271909282159
 31
0.0
  0
LINE
  5
331
330
15B
100
AcDbEntity
  8
0
  6
DASHED2
 62
     4
370
    18
100
AcDbLine
 10
-49.40202386080455
 20
129.3238845872264
 30
0.0
 11
-49.40202386080455
 21
127.271909282159
 31
0.0
  0
INSERT
  5
332
330
15B
100
AcDbEntity
  8
0
  6
Continuous
100
AcDbBlockReference
  2
DC_GROUP_COM-2117  PSLJC2-00S304A_40
 10
0.0
 20
0.0
 30
0.0
  0
ENDBLK
  5
15D
330
15B
100
AcDbEntity
  8
0
100
AcDbBlockEnd
  0
BLOCK
  5
15F
330
15E
100
AcDbEntity
  8
0
100
AcDbBlockBegin
  2
DC_GROUP_COM-2117  PSLJC2-00S304A_40
 70
     0
 10
0.0
 20
0.0
 30
0.0
  3
DC_GROUP_COM-2117  PSLJC2-00S304A_40
  1

  0
LINE
  5
333
330
15E
100
AcDbEntity
  8
0
  6
CENTER
 62
     2
370
    13
100
AcDbLine
 10
-53.768115942029
 20
136.5800886474375
 30
0.0
 11
-53.768115942029
 21
85.56062822437828
 31
0.0
  0
LINE
  5
334
330
15E
100
AcDbEntity
  8
0
  6
DASHED2
 62
     4
370
    18
100
AcDbLine
 10
-83.768115942029
 20
127.3238845872264
 30
0.0
 11
-23.768115942029
 21
127.3238845872264
 31
0.0
  0
INSERT
  5
335
330
15E
100
AcDbEntity
  8
0
  6
Continuous
100
AcDbBlockReference
  2
DC_GROUP_COM-2117  PSLJC2-00S304A_41
 10
0.0
 20
0.0
 30
0.0
  0
ENDBLK
  5
160
330
15E
100
AcDbEntity
  8
0
100
AcDbBlockEnd
  0
BLOCK
  5
162
330
161
100
AcDbEntity
  8
0
100
AcDbBlockBegin
  2
DC_GROUP_COM-2117  PSLJC2-00S304A_41
 70
     0
 10
0.0
 20
0.0
 30
0.0
  3
DC_GROUP_COM-2117  PSLJC2-00S304A_41
  1

  0
LINE
  5
336
330
161
100
AcDbEntity
  8
0
  6
Continuous
 62
     3
370
    18
100
AcDbLine
 10
-79.768115942029
 20
89.32388458722643
 30
0.0
 11
-27.768115942029
 21
89.32388458722643
 31
0.0
  0
LINE
  5
337
330
161
100
AcDbEntity
  8
0
  6
Continuous
 62
     3
370
    18
100
AcDbLine
 10
-83.768115942029
 20
129.3238845872264
 30
0.0
 11
-23.768115942029
 21
129.3238845872264
 31
0.0
  0
ARC
  5
338
330
161
100
AcDbEntity
  8
0
  6
Continuous
 62
     3
370
    18
100
AcDbCircle
 10
-79.768115942029
 20
93.32388458722643
 30
0.0
 40
4.0
100
AcDbArc
 50
180.0
 51
270.0
  0
ARC
  5
339
330
161
100
AcDbEntity
  8
0
  6
Continuous
 62
     3
370
    18
100
AcDbCircle
 10
-27.768115942029
 20
93.32388458722643
 30
0.0
 40
4.0
100
AcDbArc
 50
270.0
 51
0.0
  0
LINE
  5
33A
330
161
100
AcDbEntity
  8
0
  6
Continuous
 62
     3
370
    18
100
AcDbLine
 10
-83.768115942029
 20
129.3238845872264
 30
0.0
 11
-83.768115942029
 21
117.3238845872265
 31
0.0
  0
LINE
  5
33B
330
161
100
AcDbEntity
  8
0
  6
Continuous
 62
     3
370
    18
100
AcDbLine
 10
-23.768115942029
 20
117.1521316713133
 30
0.0
 11
-23.768115942029
 21
129.3238845872264
 31
0.0
  0
ENDBLK
  5
163
330
161
100
AcDbEntity
  8
0
100
AcDbBlockEnd
  0
BLOCK
  5
165
330
164
100
AcDbEntity
  8
0
100
AcDbBlockBegin
  2
DC_GROUP_COM-2117  PSLJC2-00S304A_42
 70
     0
 10
0.0
 20
0.0
 30
0.0
  3
DC_GROUP_COM-2117  PSLJC2-00S304A_42
  1

  0
LINE
  5
33C
330
164
100
AcDbEntity
  8
0
  6
DASHED2
 62
     4
370
    18
100
AcDbLine
 10
-49.40202386080449
 20
-132.0670968139055
 30
0.0
 11
-49.40202386080449
 21
-130.015121508838
 31
0.0
  0
LINE
  5
33D
330
164
100
AcDbEntity
  8
0
  6
DASHED2
 62
     4
370
    18
100
AcDbLine
 10
-58.13420802325339
 20
-132.0670968139055
 30
0.0
 11
-58.13420802325339
 21
-130.015121508838
 31
0.0
  0
ENDBLK
  5
166
330
164
100
AcDbEntity
  8
0
100
AcDbBlockEnd
  0
BLOCK
  5
168
330
167
100
AcDbEntity
  8
0
100
AcDbBlockBegin
  2
DC_GROUP_COM-2117  PSLJC2-00S304A_43
 70
     0
 10
0.0
 20
0.0
 30
0.0
  3
DC_GROUP_COM-2117  PSLJC2-00S304A_43
  1

  0
LINE
  5
33E
330
167
100
AcDbEntity
  8
0
  6
CENTER
 62
     2
370
    13
100
AcDbLine
 10
-53.76811594202896
 20
-133.9421269095183
 30
0.0
 11
-53.76811594202894
 21
-78.55945902715452
 31
0.0
  0
LINE
  5
33F
330
167
100
AcDbEntity
  8
0
  6
CENTER
 62
     2
370
    13
100
AcDbLine
 10
-32.76811594202894
 20
-117.7240059269955
 30
0.0
 11
-32.76811594202894
 21
-99.6078795704599
 31
0.0
  0
LINE
  5
340
330
167
100
AcDbEntity
  8
0
  6
CENTER
 62
     2
370
    13
100
AcDbLine
 10
-74.76811594202894
 20
-117.7240059269955
 30
0.0
 11
-74.76811594202894
 21
-99.6078795704599
 31
0.0
  0
LINE
  5
341
330
167
100
AcDbEntity
  8
0
  6
CENTER
 62
     2
370
    13
100
AcDbLine
 10
-19.17958658977392
 20
-108.0670968139055
 30
0.0
 11
-86.77910647220106
 21
-108.0670968139055
 31
0.0
  0
LINE
  5
342
330
167
100
AcDbEntity
  8
0
  6
Continuous
 62
     3
370
    18
100
AcDbLine
 10
-23.76811594202894
 20
-130.0670968139054
 30
0.0
 11
-83.76811594202896
 21
-130.0670968139054
 31
0.0
  0
LINE
  5
343
330
167
100
AcDbEntity
  8
0
  6
Continuous
 62
     3
370
    18
100
AcDbLine
 10
-28.51811594202894
 20
-109.935121988349
 30
0.0
 11
-28.51811594202894
 21
-106.435121988349
 31
0.0
  0
LINE
  5
344
330
167
100
AcDbEntity
  8
0
  6
Continuous
 62
     3
370
    18
100
AcDbLine
 10
-37.01811594202894
 20
-109.935121988349
 30
0.0
 11
-37.01811594202894
 21
-106.435121988349
 31
0.0
  0
ARC
  5
345
330
167
100
AcDbEntity
  8
0
  6
Continuous
 62
     3
370
    18
100
AcDbCircle
 10
-32.76811594202894
 20
-106.435121988349
 30
0.0
 40
4.25
100
AcDbArc
 50
0.0
 51
180.0
  0
ARC
  5
346
330
167
100
AcDbEntity
  8
0
  6
Continuous
 62
     3
370
    18
100
AcDbCircle
 10
-32.76811594202894
 20
-109.935121988349
 30
0.0
 40
4.25
100
AcDbArc
 50
180.0
 51
0.0
  0
LINE
  5
347
330
167
100
AcDbEntity
  8
0
  6
Continuous
 62
     3
370
    18
100
AcDbLine
 10
-70.51811594202894
 20
-109.935121988349
 30
0.0
 11
-70.51811594202894
 21
-106.435121988349
 31
0.0
  0
LINE
  5
348
330
167
100
AcDbEntity
  8
0
  6
Continuous
 62
     3
370
    18
100
AcDbLine
 10
-79.01811594202896
 20
-109.935121988349
 30
0.0
 11
-79.01811594202896
 21
-106.435121988349
 31
0.0
  0
ARC
  5
349
330
167
100
AcDbEntity
  8
0
  6
Continuous
 62
     3
370
    18
100
AcDbCircle
 10
-74.76811594202894
 20
-106.435121988349
 30
0.0
 40
4.25
100
AcDbArc
 50
0.0
 51
180.0
  0
ARC
  5
34A
330
167
100
AcDbEntity
  8
0
  6
Continuous
 62
     3
370
    18
100
AcDbCircle
 10
-74.76811594202894
 20
-109.935121988349
 30
0.0
 40
4.25
100
AcDbArc
 50
180.0
 51
0.0
  0
INSERT
  5
34B
330
167
100
AcDbEntity
  8
0
  6
Continuous
100
AcDbBlockReference
  2
DC_GROUP_COM-2117  PSLJC2-00S304A_44
 10
0.0
 20
0.0
 30
0.0
  0
ENDBLK
  5
169
330
167
100
AcDbEntity
  8
0
100
AcDbBlockEnd
  0
BLOCK
  5
16B
330
16A
100
AcDbEntity
  8
0
100
AcDbBlockBegin
  2
DC_GROUP_COM-2117  PSLJC2-00S304A_44
 70
     0
 10
0.0
 20
0.0
 30
0.0
  3
DC_GROUP_COM-2117  PSLJC2-00S304A_44
  1

  0
LINE
  5
34C
330
16A
100
AcDbEntity
  8
0
  6
Continuous
 62
     3
370
    18
100
AcDbLine
 10
-23.76811594202894
 20
-132.0670968139054
 30
0.0
 11
-23.76811594202894
 21
-96.06709681390545
 31
0.0
  0
LINE
  5
34D
330
16A
100
AcDbEntity
  8
0
  6
Continuous
 62
     3
370
    18
100
AcDbLine
 10
-83.76811594202894
 20
-96.06709681390545
 30
0.0
 11
-83.76811594202896
 21
-132.0670968139054
 31
0.0
  0
LINE
  5
34E
330
16A
100
AcDbEntity
  8
0
  6
Continuous
 62
     3
370
    18
100
AcDbLine
 10
-27.76811594202894
 20
-92.06709681390545
 30
0.0
 11
-79.76811594202894
 21
-92.06709681390545
 31
0.0
  0
LINE
  5
34F
330
16A
100
AcDbEntity
  8
0
  6
Continuous
 62
     3
370
    18
100
AcDbLine
 10
-23.76811594202894
 20
-132.0670968139054
 30
0.0
 11
-83.76811594202896
 21
-132.0670968139054
 31
0.0
  0
ARC
  5
350
330
16A
100
AcDbEntity
  8
0
  6
Continuous
 62
     3
370
    18
100
AcDbCircle
 10
-27.76811594202894
 20
-96.06709681390545
 30
0.0
 40
4.0
100
AcDbArc
 50
0.0
 51
90.0
  0
ARC
  5
351
330
16A
100
AcDbEntity
  8
0
  6
Continuous
 62
     3
370
    18
100
AcDbCircle
 10
-79.76811594202894
 20
-96.06709681390545
 30
0.0
 40
4.0
100
AcDbArc
 50
89.99999999999999
 51
180.0
  0
ENDBLK
  5
16C
330
16A
100
AcDbEntity
  8
0
100
AcDbBlockEnd
  0
BLOCK
  5
16E
330
16D
100
AcDbEntity
  8
0
100
AcDbBlockBegin
  2
*D63
 70
     1
 10
0.0
 20
0.0
 30
0.0
  3
*D63
  1

  0
LINE
  5
352
330
16D
100
AcDbEntity
  8
0
  6
Continuous
 62
     2
370
    13
100
AcDbLine
 10
-74.76811594202894
 20
-137.8761837284855
 30
0.0
 11
-32.76811594202894
 21
-137.8761837284855
 31
0.0
  0
INSERT
  5
353
330
16D
100
AcDbEntity
  8
0
 62
     2
100
AcDbBlockReference
  2
_Open30
 10
-74.76811594202894
 20
-137.8761837284855
 30
0.0
 41
3.000002807615286
 42
2.999989368223643
 50
180.0
  0
INSERT
  5
354
330
16D
100
AcDbEntity
  8
0
 62
     2
100
AcDbBlockReference
  2
_Open30
 10
-32.76811594202894
 20
-137.8761837284855
 30
0.0
 41
3.000002807615286
 42
2.999989368223643
 50
360.0
  0
LINE
  5
355
330
16D
100
AcDbEntity
  8
0
  6
Continuous
 62
     2
370
    13
100
AcDbLine
 10
-74.76811594202894
 20
-118.7240059269955
 30
0.0
 11
-74.76811594202894
 21
-138.8761837284855
 31
0.0
  0
LINE
  5
356
330
16D
100
AcDbEntity
  8
0
  6
Continuous
 62
     2
370
    13
100
AcDbLine
 10
-32.76811594202894
 20
-118.7240059269955
 30
0.0
 11
-32.76811594202894
 21
-138.8761837284855
 31
0.0
  0
MTEXT
  5
357
330
16D
100
AcDbEntity
  8
0
 62
     4
100
AcDbMText
 10
-53.76811594202894
 20
-136.8761837284855
 30
0.0
 40
4.5
 41
0.0
 46
0.0
 71
     8
 72
     1
  1
\T1.00;\W0.5000;42
  7
dcStyle0
 73
     1
 44
1.0
  0
ENDBLK
  5
16F
330
16D
100
AcDbEntity
  8
0
100
AcDbBlockEnd
  0
BLOCK
  5
1C7
330
1C6
100
AcDbEntity
  8
0
100
AcDbBlockBegin
  2
_Open30
 70
     0
 10
0.0
 20
0.0
 30
0.0
  3
_Open30
  1

  0
LINE
  5
1C9
330
1C6
100
AcDbEntity
  8
0
  6
ByBlock
 62
     0
370
    -2
100
AcDbLine
 10
-1.0
 20
0.267949
 30
0.0
 11
0.0
 21
0.0
 31
0.0
  0
LINE
  5
1CA
330
1C6
100
AcDbEntity
  8
0
  6
ByBlock
 62
     0
370
    -2
100
AcDbLine
 10
0.0
 20
0.0
 30
0.0
 11
-1.0
 21
-0.267949
 31
0.0
  0
LINE
  5
1CB
330
1C6
100
AcDbEntity
  8
0
  6
ByBlock
 62
     0
370
    -2
100
AcDbLine
 10
0.0
 20
0.0
 30
0.0
 11
-1.0
 21
0.0
 31
0.0
  0
ENDBLK
  5
1C8
330
1C6
100
AcDbEntity
  8
0
100
AcDbBlockEnd
  0
BLOCK
  5
301
330
300
100
AcDbEntity
  8
0
100
AcDbBlockBegin
  2
_Dot
 70
     0
 10
0.0
 20
0.0
 30
0.0
  3
_Dot
  1

  0
LWPOLYLINE
  5
303
330
300
100
AcDbEntity
  8
0
  6
ByBlock
 62
     0
100
AcDbPolyline
 90
        2
 70
     1
 43
0.5
 10
-0.25
 20
0.0
 42
1.0
 10
0.25
 20
0.0
 42
1.0
  0
LINE
  5
304
330
300
100
AcDbEntity
  8
0
  6
ByBlock
 62
     0
370
    -2
100
AcDbLine
 10
-0.5
 20
0.0
 30
0.0
 11
-1.0
 21
0.0
 31
0.0
  0
ENDBLK
  5
302
330
300
100
AcDbEntity
  8
0
100
AcDbBlockEnd
  0
ENDSEC
  0
SECTION
  2
ENTITIES
  0
LINE
  5
358
330
1F
100
AcDbEntity
  8
0
  6
CENTER
 62
     2
370
    13
100
AcDbLine
 10
-53.76811594202898
 20
71.5572144290627
 30
0.0
 11
-53.76811594202898
 21
-40.18068519995202
 31
0.0
  0
LINE
  5
359
330
1F
100
AcDbEntity
  8
0
  6
CENTER
 62
     2
370
    13
100
AcDbLine
 10
-102.0517230785773
 20
105.3238845872265
 30
0.0
 11
-2.115769221907343
 21
105.3238845872265
 31
0.0
  0
LINE
  5
35A
330
1F
100
AcDbEntity
  8
0
  6
CENTER
 62
     2
370
    13
100
AcDbLine
 10
-53.76811594202898
 20
121.69716323672
 30
0.0
 11
-53.76811594202898
 21
87.47107013594652
 31
0.0
  0
LINE
  5
35B
330
1F
100
AcDbEntity
  8
0
  6
CENTER
 62
     2
370
    13
100
AcDbLine
 10
-102.0517230785773
 20
-108.0670968139054
 30
0.0
 11
-2.115769221907343
 21
-108.0670968139054
 31
0.0
  0
LINE
  5
35C
330
1F
100
AcDbEntity
  8
0
  6
CENTER
 62
     2
370
    13
100
AcDbLine
 10
-53.76811594202898
 20
-85.68438289794342
 30
0.0
 11
-53.76811594202898
 21
-132.9371327849589
 31
0.0
  0
LINE
  5
35D
330
1F
100
AcDbEntity
  8
0
  6
CENTER
 62
     2
370
    13
100
AcDbLine
 10
89.21829586807908
 20
72.75277255447762
 30
0.0
 11
89.2182958680791
 21
-40.47046346926992
 31
0.0
  0
LINE
  5
35E
330
1F
100
AcDbEntity
  8
0
  6
CENTER
 62
     2
370
    13
100
AcDbLine
 10
75.56923384191454
 20
38.09683144712986
 30
0.0
 11
104.5183769710799
 21
38.09683144712986
 31
0.0
  0
LINE
  5
35F
330
1F
100
AcDbEntity
  8
0
  6
CENTER
 62
     2
370
    13
100
AcDbLine
 10
-99.76811594202897
 20
38.09683144712986
 30
0.0
 11
-7.768115942028977
 21
38.09683144712986
 31
0.0
  0
LINE
  5
360
330
1F
100
AcDbEntity
  8
0
  6
Continuous
 62
     3
370
    18
100
AcDbLine
 10
-99.76811594202897
 20
111.4675810473816
 30
0.0
 11
-7.768115942028984
 21
111.4675810473816
 31
0.0
  0
LINE
  5
361
330
1F
100
AcDbEntity
  8
0
  6
Continuous
 62
     3
370
    18
100
AcDbLine
 10
-99.76811594202897
 20
113.9675810473816
 30
0.0
 11
-7.768115942028984
 21
113.9675810473816
 31
0.0
  0
LINE
  5
362
330
1F
100
AcDbEntity
  8
0
  6
Continuous
 62
     3
370
    18
100
AcDbLine
 10
-99.76811594202897
 20
99.18018812707136
 30
0.0
 11
-7.768115942028984
 21
99.18018812707136
 31
0.0
  0
LINE
  5
363
330
1F
100
AcDbEntity
  8
0
  6
Continuous
 62
     3
370
    18
100
AcDbLine
 10
-99.76811594202897
 20
96.68018812707133
 30
0.0
 11
-7.768115942028984
 21
96.68018812707133
 31
0.0
  0
LINE
  5
364
330
1F
100
AcDbEntity
  8
0
  6
Continuous
 62
     3
370
    18
100
AcDbLine
 10
-99.76811594202897
 20
-101.9234003537503
 30
0.0
 11
-83.76811594202894
 21
-101.9234003537503
 31
0.0
  0
LINE
  5
365
330
1F
100
AcDbEntity
  8
0
  6
Continuous
 62
     3
370
    18
100
AcDbLine
 10
-23.76811594202894
 20
-101.9234003537503
 30
0.0
 11
-7.768115942028984
 21
-101.9234003537503
 31
0.0
  0
LINE
  5
366
330
1F
100
AcDbEntity
  8
0
  6
Continuous
 62
     3
370
    18
100
AcDbLine
 10
-99.76811594202897
 20
-99.4234003537503
 30
0.0
 11
-83.76811594202894
 21
-99.4234003537503
 31
0.0
  0
LINE
  5
367
330
1F
100
AcDbEntity
  8
0
  6
Continuous
 62
     3
370
    18
100
AcDbLine
 10
-23.76811594202894
 20
-99.4234003537503
 30
0.0
 11
-7.768115942028984
 21
-99.4234003537503
 31
0.0
  0
LINE
  5
368
330
1F
100
AcDbEntity
  8
0
  6
Continuous
 62
     3
370
    18
100
AcDbLine
 10
-99.76811594202897
 20
-114.2107932740605
 30
0.0
 11
-83.76811594202896
 21
-114.2107932740605
 31
0.0
  0
LINE
  5
369
330
1F
100
AcDbEntity
  8
0
  6
Continuous
 62
     3
370
    18
100
AcDbLine
 10
-23.76811594202894
 20
-114.2107932740605
 30
0.0
 11
-7.768115942028984
 21
-114.2107932740605
 31
0.0
  0
LINE
  5
36A
330
1F
100
AcDbEntity
  8
0
  6
Continuous
 62
     3
370
    18
100
AcDbLine
 10
-99.76811594202897
 20
-116.7107932740605
 30
0.0
 11
-83.76811594202896
 21
-116.7107932740605
 31
0.0
  0
LINE
  5
36B
330
1F
100
AcDbEntity
  8
0
  6
Continuous
 62
     3
370
    18
100
AcDbLine
 10
-23.76811594202894
 20
-116.7107932740605
 30
0.0
 11
-7.768115942028984
 21
-116.7107932740605
 31
0.0
  0
LINE
  5
36C
330
1F
100
AcDbEntity
  8
0
  6
Continuous
 62
     3
370
    18
100
AcDbLine
 10
-82.76811594202897
 20
109.9675810473816
 30
0.0
 11
-82.76811594202897
 21
100.6801881270714
 31
0.0
  0
ARC
  5
36D
330
1F
100
AcDbEntity
  8
0
  6
Continuous
 62
     3
370
    18
100
AcDbCircle
 10
-81.26811594202897
 20
109.9675810473816
 30
0.0
 40
1.5
100
AcDbArc
 50
90.00000000000001
 51
180.0
  0
ARC
  5
36E
330
1F
100
AcDbEntity
  8
0
  6
Continuous
 62
     3
370
    18
100
AcDbCircle
 10
-81.26811594202897
 20
100.6801881270714
 30
0.0
 40
1.5
100
AcDbArc
 50
180.0
 51
270.0
  0
LINE
  5
36F
330
1F
100
AcDbEntity
  8
0
  6
Continuous
 62
     3
370
    18
100
AcDbLine
 10
-81.14449114510808
 20
116.3238845872265
 30
0.0
 11
-81.14449114510808
 21
114.9675810473816
 31
0.0
  0
LINE
  5
370
330
1F
100
AcDbEntity
  8
0
  6
Continuous
 62
     3
370
    18
100
AcDbLine
 10
-81.14449114510808
 20
95.68018812707133
 30
0.0
 11
-81.14449114510808
 21
94.32388458722646
 31
0.0
  0
ARC
  5
371
330
1F
100
AcDbEntity
  8
0
  6
Continuous
 62
     3
370
    18
100
AcDbCircle
 10
-80.14449114510808
 20
116.3238845872265
 30
0.0
 40
1.0
100
AcDbArc
 50
90.00000000000001
 51
180.0
  0
ARC
  5
372
330
1F
100
AcDbEntity
  8
0
  6
Continuous
 62
     3
370
    18
100
AcDbCircle
 10
-80.14449114510808
 20
114.9675810473816
 30
0.0
 40
1.0
100
AcDbArc
 50
180.0
 51
270.0
  0
ARC
  5
373
330
1F
100
AcDbEntity
  8
0
  6
Continuous
 62
     3
370
    18
100
AcDbCircle
 10
-80.14449114510808
 20
95.68018812707133
 30
0.0
 40
1.0
100
AcDbArc
 50
90.00000000000001
 51
180.0
  0
ARC
  5
374
330
1F
100
AcDbEntity
  8
0
  6
Continuous
 62
     3
370
    18
100
AcDbCircle
 10
-80.14449114510808
 20
94.32388458722646
 30
0.0
 40
1.0
100
AcDbArc
 50
180.0
 51
270.0
  0
LINE
  5
375
330
1F
100
AcDbEntity
  8
0
  6
Continuous
 62
     3
370
    18
100
AcDbLine
 10
-26.39174073894987
 20
116.3238845872265
 30
0.0
 11
-26.39174073894987
 21
114.9675810473816
 31
0.0
  0
LINE
  5
376
330
1F
100
AcDbEntity
  8
0
  6
Continuous
 62
     3
370
    18
100
AcDbLine
 10
-26.39174073894987
 20
95.68018812707133
 30
0.0
 11
-26.39174073894987
 21
94.32388458722646
 31
0.0
  0
ARC
  5
377
330
1F
100
AcDbEntity
  8
0
  6
Continuous
 62
     3
370
    18
100
AcDbCircle
 10
-27.39174073894987
 20
116.3238845872265
 30
0.0
 40
1.0
100
AcDbArc
 50
0.0
 51
90.0
  0
ARC
  5
378
330
1F
100
AcDbEntity
  8
0
  6
Continuous
 62
     3
370
    18
100
AcDbCircle
 10
-27.39174073894987
 20
114.9675810473816
 30
0.0
 40
1.0
100
AcDbArc
 50
270.0
 51
0.0
  0
ARC
  5
379
330
1F
100
AcDbEntity
  8
0
  6
Continuous
 62
     3
370
    18
100
AcDbCircle
 10
-27.39174073894987
 20
95.68018812707133
 30
0.0
 40
1.0
100
AcDbArc
 50
0.0
 51
90.0
  0
ARC
  5
37A
330
1F
100
AcDbEntity
  8
0
  6
Continuous
 62
     3
370
    18
100
AcDbCircle
 10
-27.39174073894987
 20
94.32388458722646
 30
0.0
 40
1.0
100
AcDbArc
 50
270.0
 51
0.0
  0
LINE
  5
37B
330
1F
100
AcDbEntity
  8
0
  6
Continuous
 62
     3
370
    18
100
AcDbLine
 10
-24.76811594202898
 20
109.9675810473816
 30
0.0
 11
-24.76811594202898
 21
100.6801881270714
 31
0.0
  0
ARC
  5
37C
330
1F
100
AcDbEntity
  8
0
  6
Continuous
 62
     3
370
    18
100
AcDbCircle
 10
-26.26811594202898
 20
109.9675810473816
 30
0.0
 40
1.5
100
AcDbArc
 50
0.0
 51
90.0
  0
ARC
  5
37D
330
1F
100
AcDbEntity
  8
0
  6
Continuous
 62
     3
370
    18
100
AcDbCircle
 10
-26.26811594202898
 20
100.6801881270714
 30
0.0
 40
1.5
100
AcDbArc
 50
270.0
 51
0.0
  0
LINE
  5
37E
330
1F
100
AcDbEntity
  8
0
  6
Continuous
 62
     3
370
    18
100
AcDbLine
 10
-83.58002631355666
 20
44.59683144712986
 30
0.0
 11
-99.76811594202897
 21
44.59683144712987
 31
0.0
  0
LINE
  5
37F
330
1F
100
AcDbEntity
  8
0
  6
Continuous
 62
     3
370
    18
100
AcDbLine
 10
-83.76811594202898
 20
42.19683144712985
 30
0.0
 11
-99.76811594202897
 21
42.19683144712985
 31
0.0
  0
LINE
  5
380
330
1F
100
AcDbEntity
  8
0
  6
Continuous
 62
     3
370
    18
100
AcDbLine
 10
-83.76811594202898
 20
40.59683144712985
 30
0.0
 11
-99.76811594202897
 21
40.59683144712985
 31
0.0
  0
ARC
  5
381
330
1F
100
AcDbEntity
  8
0
  6
Continuous
 62
     3
370
    18
100
AcDbCircle
 10
-83.58002631355666
 20
46.59683144712987
 30
0.0
 40
2.0
100
AcDbArc
 50
270.0000000000001
 51
344.0860393138194
  0
ARC
  5
382
330
1F
100
AcDbEntity
  8
0
  6
Continuous
 62
     3
370
    18
100
AcDbCircle
 10
-83.58002631355664
 20
46.59683144712987
 30
0.0
 40
6.00294741842198
100
AcDbArc
 50
268.2044643650789
 51
342.4736610139033
  0
LINE
  5
383
330
1F
100
AcDbEntity
  8
0
  6
Continuous
 62
     3
370
    18
100
AcDbLine
 10
-99.76811594202897
 20
40.59683144712985
 30
0.0
 11
-99.76811594202897
 21
44.59683144712987
 31
0.0
  0
ARC
  5
384
330
1F
100
AcDbEntity
  8
0
  6
Continuous
 62
     3
370
    18
100
AcDbCircle
 10
-83.58002631355664
 20
46.59683144712987
 30
0.0
 40
4.404018359219116
100
AcDbArc
 50
267.5522307415866
 51
346.3533412274163
  0
LINE
  5
385
330
1F
100
AcDbEntity
  8
0
  6
Continuous
 62
     3
370
    18
100
AcDbLine
 10
-83.58002631355666
 20
31.59683144712985
 30
0.0
 11
-99.76811594202897
 21
31.59683144712984
 31
0.0
  0
LINE
  5
386
330
1F
100
AcDbEntity
  8
0
  6
Continuous
 62
     3
370
    18
100
AcDbLine
 10
-83.76811594202898
 20
33.99683144712986
 30
0.0
 11
-99.76811594202897
 21
33.99683144712986
 31
0.0
  0
LINE
  5
387
330
1F
100
AcDbEntity
  8
0
  6
Continuous
 62
     3
370
    18
100
AcDbLine
 10
-83.76811594202898
 20
35.59683144712986
 30
0.0
 11
-99.76811594202897
 21
35.59683144712986
 31
0.0
  0
ARC
  5
388
330
1F
100
AcDbEntity
  8
0
  6
Continuous
 62
     3
370
    18
100
AcDbCircle
 10
-83.58002631355666
 20
29.59683144712984
 30
0.0
 40
2.0
100
AcDbArc
 50
15.91396068618068
 51
89.99999999999991
  0
ARC
  5
389
330
1F
100
AcDbEntity
  8
0
  6
Continuous
 62
     3
370
    18
100
AcDbCircle
 10
-83.58002631355664
 20
29.59683144712984
 30
0.0
 40
6.00294741842198
100
AcDbArc
 50
17.52633898609669
 51
91.79553563492115
  0
LINE
  5
38A
330
1F
100
AcDbEntity
  8
0
  6
Continuous
 62
     3
370
    18
100
AcDbLine
 10
-99.76811594202897
 20
35.59683144712986
 30
0.0
 11
-99.76811594202897
 21
31.59683144712984
 31
0.0
  0
ARC
  5
38B
330
1F
100
AcDbEntity
  8
0
  6
Continuous
 62
     3
370
    18
100
AcDbCircle
 10
-83.58002631355664
 20
29.59683144712984
 30
0.0
 40
4.404018359219116
100
AcDbArc
 50
13.64665877258374
 51
92.44776925841339
  0
ARC
  5
38C
330
1F
100
AcDbEntity
  8
0
  6
Continuous
 62
     3
370
    18
100
AcDbCircle
 10
-53.76811594202897
 20
38.09683144712986
 30
0.0
 40
29.0
100
AcDbArc
 50
195.9139606861809
 51
270.0
  0
ARC
  5
38D
330
1F
100
AcDbEntity
  8
0
  6
Continuous
 62
     3
370
    18
100
AcDbCircle
 10
-53.76811594202897
 20
38.09683144712986
 30
0.0
 40
29.0
100
AcDbArc
 50
90.0
 51
164.0860393138191
  0
ARC
  5
38E
330
1F
100
AcDbEntity
  8
0
  6
Continuous
 62
     3
370
    18
100
AcDbCircle
 10
-53.76811594202898
 20
38.09683144712986
 30
0.0
 40
26.6
100
AcDbArc
 50
196.2892503403568
 51
270.0
  0
ARC
  5
38F
330
1F
100
AcDbEntity
  8
0
  6
Continuous
 62
     3
370
    18
100
AcDbCircle
 10
-53.76811594202898
 20
38.09683144712986
 30
0.0
 40
26.6
100
AcDbArc
 50
90.0
 51
163.7107496596432
  0
ARC
  5
390
330
1F
100
AcDbEntity
  8
0
  6
Continuous
 62
     3
370
    18
100
AcDbCircle
 10
-53.76811594202898
 20
38.09683144712986
 30
0.0
 40
25.0
100
AcDbArc
 50
195.5268479537734
 51
270.0
  0
ARC
  5
391
330
1F
100
AcDbEntity
  8
0
  6
Continuous
 62
     3
370
    18
100
AcDbCircle
 10
-53.76811594202898
 20
38.09683144712986
 30
0.0
 40
25.0
100
AcDbArc
 50
90.0
 51
164.4731520462277
  0
LINE
  5
392
330
1F
100
AcDbEntity
  8
0
  6
Continuous
 62
     3
370
    18
100
AcDbLine
 10
-23.9562055705013
 20
44.59683144712986
 30
0.0
 11
-7.768115942028984
 21
44.59683144712987
 31
0.0
  0
LINE
  5
393
330
1F
100
AcDbEntity
  8
0
  6
Continuous
 62
     3
370
    18
100
AcDbLine
 10
-23.76811594202897
 20
42.19683144712985
 30
0.0
 11
-7.768115942028984
 21
42.19683144712985
 31
0.0
  0
LINE
  5
394
330
1F
100
AcDbEntity
  8
0
  6
Continuous
 62
     3
370
    18
100
AcDbLine
 10
-23.76811594202897
 20
40.59683144712985
 30
0.0
 11
-7.768115942028984
 21
40.59683144712985
 31
0.0
  0
ARC
  5
395
330
1F
100
AcDbEntity
  8
0
  6
Continuous
 62
     3
370
    18
100
AcDbCircle
 10
-23.9562055705013
 20
46.59683144712987
 30
0.0
 40
2.0
100
AcDbArc
 50
195.9139606861807
 51
269.9999999999999
  0
ARC
  5
396
330
1F
100
AcDbEntity
  8
0
  6
Continuous
 62
     3
370
    18
100
AcDbCircle
 10
-23.95620557050131
 20
46.59683144712987
 30
0.0
 40
6.00294741842198
100
AcDbArc
 50
197.5263389860967
 51
271.7955356349211
  0
LINE
  5
397
330
1F
100
AcDbEntity
  8
0
  6
Continuous
 62
     3
370
    18
100
AcDbLine
 10
-7.768115942028984
 20
40.59683144712985
 30
0.0
 11
-7.768115942028984
 21
44.59683144712987
 31
0.0
  0
ARC
  5
398
330
1F
100
AcDbEntity
  8
0
  6
Continuous
 62
     3
370
    18
100
AcDbCircle
 10
-23.95620557050131
 20
46.59683144712987
 30
0.0
 40
4.404018359219116
100
AcDbArc
 50
193.6466587725837
 51
272.4477692584134
  0
LINE
  5
399
330
1F
100
AcDbEntity
  8
0
  6
Continuous
 62
     3
370
    18
100
AcDbLine
 10
-23.9562055705013
 20
31.59683144712985
 30
0.0
 11
-7.768115942028984
 21
31.59683144712984
 31
0.0
  0
LINE
  5
39A
330
1F
100
AcDbEntity
  8
0
  6
Continuous
 62
     3
370
    18
100
AcDbLine
 10
-23.76811594202897
 20
33.99683144712986
 30
0.0
 11
-7.768115942028984
 21
33.99683144712986
 31
0.0
  0
LINE
  5
39B
330
1F
100
AcDbEntity
  8
0
  6
Continuous
 62
     3
370
    18
100
AcDbLine
 10
-23.76811594202897
 20
35.59683144712986
 30
0.0
 11
-7.768115942028984
 21
35.59683144712986
 31
0.0
  0
ARC
  5
39C
330
1F
100
AcDbEntity
  8
0
  6
Continuous
 62
     3
370
    18
100
AcDbCircle
 10
-23.9562055705013
 20
29.59683144712984
 30
0.0
 40
2.0
100
AcDbArc
 50
90.0000000000001
 51
164.0860393138193
  0
ARC
  5
39D
330
1F
100
AcDbEntity
  8
0
  6
Continuous
 62
     3
370
    18
100
AcDbCircle
 10
-23.95620557050131
 20
29.59683144712984
 30
0.0
 40
6.00294741842198
100
AcDbArc
 50
88.20446436507885
 51
162.4736610139033
  0
LINE
  5
39E
330
1F
100
AcDbEntity
  8
0
  6
Continuous
 62
     3
370
    18
100
AcDbLine
 10
-7.768115942028984
 20
35.59683144712986
 30
0.0
 11
-7.768115942028984
 21
31.59683144712984
 31
0.0
  0
ARC
  5
39F
330
1F
100
AcDbEntity
  8
0
  6
Continuous
 62
     3
370
    18
100
AcDbCircle
 10
-23.95620557050131
 20
29.59683144712984
 30
0.0
 40
4.404018359219116
100
AcDbArc
 50
87.55223074158663
 51
166.3533412274163
  0
ARC
  5
3A0
330
1F
100
AcDbEntity
  8
0
  6
Continuous
 62
     3
370
    18
100
AcDbCircle
 10
-53.76811594202898
 20
38.09683144712986
 30
0.0
 40
29.0
100
AcDbArc
 50
15.91396068618087
 51
90.00000000000001
  0
ARC
  5
3A1
330
1F
100
AcDbEntity
  8
0
  6
Continuous
 62
     3
370
    18
100
AcDbCircle
 10
-53.76811594202898
 20
38.09683144712986
 30
0.0
 40
26.6
100
AcDbArc
 50
16.28925034035682
 51
90.00000000000001
  0
ARC
  5
3A2
330
1F
100
AcDbEntity
  8
0
  6
Continuous
 62
     3
370
    18
100
AcDbCircle
 10
-53.76811594202898
 20
38.09683144712986
 30
0.0
 40
25.0
100
AcDbArc
 50
15.52684795377236
 51
90.00000000000001
  0
ARC
  5
3A3
330
1F
100
AcDbEntity
  8
0
  6
Continuous
 62
     3
370
    18
100
AcDbCircle
 10
-53.76811594202898
 20
38.09683144712986
 30
0.0
 40
29.0
100
AcDbArc
 50
270.0
 51
344.0860393138191
  0
ARC
  5
3A4
330
1F
100
AcDbEntity
  8
0
  6
Continuous
 62
     3
370
    18
100
AcDbCircle
 10
-53.76811594202898
 20
38.09683144712986
 30
0.0
 40
26.6
100
AcDbArc
 50
270.0
 51
343.7107496596432
  0
ARC
  5
3A5
330
1F
100
AcDbEntity
  8
0
  6
Continuous
 62
     3
370
    18
100
AcDbCircle
 10
-53.76811594202898
 20
38.09683144712986
 30
0.0
 40
25.0
100
AcDbArc
 50
270.0
 51
344.4731520462265
  0
POINT
  5
3A6
330
1F
100
AcDbEntity
  8
ZUWAKU
  6
Continuous
 62
     7
100
AcDbPoint
 10
-250.0
 20
-279.0
 30
0.0
  0
LINE
  5
3A7
330
1F
100
AcDbEntity
  8
ZUWAKU
  6
Continuous
 62
     4
370
    18
100
AcDbLine
 10
-200.0
 20
-138.5
 30
0.0
 11
-200.0
 21
138.5
 31
0.0
  0
LINE
  5
3A8
330
1F
100
AcDbEntity
  8
ZUWAKU
  6
Continuous
 62
     4
370
    18
100
AcDbLine
 10
-200.0
 20
138.5
 30
0.0
 11
200.0
 21
138.5
 31
0.0
  0
LINE
  5
3A9
330
1F
100
AcDbEntity
  8
ZUWAKU
  6
Continuous
 62
     4
370
    18
100
AcDbLine
 10
200.0
 20
138.5
 30
0.0
 11
200.0
 21
-138.5
 31
0.0
  0
LINE
  5
3AA
330
1F
100
AcDbEntity
  8
ZUWAKU
  6
Continuous
 62
     4
370
    18
100
AcDbLine
 10
-200.0
 20
-138.5
 30
0.0
 11
200.0
 21
-138.5
 31
0.0
  0
LINE
  5
3AB
330
1F
100
AcDbEntity
  8
ZUWAKU
  6
Continuous
 62
     7
370
    18
100
AcDbLine
 10
200.0
 20
103.875
 30
0.0
 11
205.0
 21
103.875
 31
0.0
  0
LINE
  5
3AC
330
1F
100
AcDbEntity
  8
ZUWAKU
  6
Continuous
 62
     7
370
    18
100
AcDbLine
 10
200.0
 20
69.25
 30
0.0
 11
205.0
 21
69.25
 31
0.0
  0
LINE
  5
3AD
330
1F
100
AcDbEntity
  8
ZUWAKU
  6
Continuous
 62
     7
370
    18
100
AcDbLine
 10
200.0
 20
34.625
 30
0.0
 11
205.0
 21
34.625
 31
0.0
  0
LINE
  5
3AE
330
1F
100
AcDbEntity
  8
ZUWAKU
  6
Continuous
 62
     7
370
    18
100
AcDbLine
 10
200.0
 20
-34.625
 30
0.0
 11
205.0
 21
-34.625
 31
0.0
  0
LINE
  5
3AF
330
1F
100
AcDbEntity
  8
ZUWAKU
  6
Continuous
 62
     7
370
    18
100
AcDbLine
 10
200.0
 20
-69.25
 30
0.0
 11
205.0
 21
-69.25
 31
0.0
  0
LINE
  5
3B0
330
1F
100
AcDbEntity
  8
ZUWAKU
  6
Continuous
 62
     7
370
    18
100
AcDbLine
 10
200.0
 20
-103.875
 30
0.0
 11
205.0
 21
-103.875
 31
0.0
  0
LINE
  5
3B1
330
1F
100
AcDbEntity
  8
ZUWAKU
  6
Continuous
 62
     7
370
    18
100
AcDbLine
 10
200.0
 20
0.0
 30
0.0
 11
210.0
 21
0.0
 31
0.0
  0
LINE
  5
3B2
330
1F
100
AcDbEntity
  8
ZUWAKU
  6
Continuous
 62
     7
370
    18
100
AcDbLine
 10
-166.666667
 20
138.5
 30
0.0
 11
-166.666667
 21
143.5
 31
0.0
  0
LINE
  5
3B3
330
1F
100
AcDbEntity
  8
ZUWAKU
  6
Continuous
 62
     7
370
    18
100
AcDbLine
 10
-133.333333
 20
138.5
 30
0.0
 11
-133.333333
 21
143.5
 31
0.0
  0
LINE
  5
3B4
330
1F
100
AcDbEntity
  8
ZUWAKU
  6
Continuous
 62
     7
370
    18
100
AcDbLine
 10
-100.0
 20
138.5
 30
0.0
 11
-100.0
 21
143.5
 31
0.0
  0
LINE
  5
3B5
330
1F
100
AcDbEntity
  8
ZUWAKU
  6
Continuous
 62
     7
370
    18
100
AcDbLine
 10
-66.66666699999999
 20
138.5
 30
0.0
 11
-66.66666699999999
 21
143.5
 31
0.0
  0
LINE
  5
3B6
330
1F
100
AcDbEntity
  8
ZUWAKU
  6
Continuous
 62
     7
370
    18
100
AcDbLine
 10
-33.33333300000001
 20
138.5
 30
0.0
 11
-33.33333300000001
 21
143.5
 31
0.0
  0
LINE
  5
3B7
330
1F
100
AcDbEntity
  8
ZUWAKU
  6
Continuous
 62
     7
370
    18
100
AcDbLine
 10
33.33333300000001
 20
138.5
 30
0.0
 11
33.33333300000001
 21
143.5
 31
0.0
  0
LINE
  5
3B8
330
1F
100
AcDbEntity
  8
ZUWAKU
  6
Continuous
 62
     7
370
    18
100
AcDbLine
 10
66.66666700000002
 20
138.5
 30
0.0
 11
66.66666700000002
 21
143.5
 31
0.0
  0
LINE
  5
3B9
330
1F
100
AcDbEntity
  8
ZUWAKU
  6
Continuous
 62
     7
370
    18
100
AcDbLine
 10
100.0
 20
138.5
 30
0.0
 11
100.0
 21
143.5
 31
0.0
  0
LINE
  5
3BA
330
1F
100
AcDbEntity
  8
ZUWAKU
  6
Continuous
 62
     7
370
    18
100
AcDbLine
 10
133.333333
 20
138.5
 30
0.0
 11
133.333333
 21
143.5
 31
0.0
  0
LINE
  5
3BB
330
1F
100
AcDbEntity
  8
ZUWAKU
  6
Continuous
 62
     7
370
    18
100
AcDbLine
 10
166.666667
 20
138.5
 30
0.0
 11
166.666667
 21
143.5
 31
0.0
  0
LINE
  5
3BC
330
1F
100
AcDbEntity
  8
ZUWAKU
  6
Continuous
 62
     7
370
    18
100
AcDbLine
 10
0.0
 20
138.5
 30
0.0
 11
0.0
 21
148.5
 31
0.0
  0
LINE
  5
3BD
330
1F
100
AcDbEntity
  8
ZUWAKU
  6
Continuous
 62
     7
370
    18
100
AcDbLine
 10
-200.0
 20
103.875
 30
0.0
 11
-205.0
 21
103.875
 31
0.0
  0
LINE
  5
3BE
330
1F
100
AcDbEntity
  8
ZUWAKU
  6
Continuous
 62
     7
370
    18
100
AcDbLine
 10
-200.0
 20
69.25
 30
0.0
 11
-205.0
 21
69.25
 31
0.0
  0
LINE
  5
3BF
330
1F
100
AcDbEntity
  8
ZUWAKU
  6
Continuous
 62
     7
370
    18
100
AcDbLine
 10
-200.0
 20
34.625
 30
0.0
 11
-205.0
 21
34.625
 31
0.0
  0
LINE
  5
3C0
330
1F
100
AcDbEntity
  8
ZUWAKU
  6
Continuous
 62
     7
370
    18
100
AcDbLine
 10
-200.0
 20
-34.625
 30
0.0
 11
-205.0
 21
-34.625
 31
0.0
  0
LINE
  5
3C1
330
1F
100
AcDbEntity
  8
ZUWAKU
  6
Continuous
 62
     7
370
    18
100
AcDbLine
 10
-200.0
 20
-69.25
 30
0.0
 11
-205.0
 21
-69.25
 31
0.0
  0
LINE
  5
3C2
330
1F
100
AcDbEntity
  8
ZUWAKU
  6
Continuous
 62
     7
370
    18
100
AcDbLine
 10
-200.0
 20
-103.875
 30
0.0
 11
-205.0
 21
-103.875
 31
0.0
  0
LINE
  5
3C3
330
1F
100
AcDbEntity
  8
ZUWAKU
  6
Continuous
 62
     7
370
    18
100
AcDbLine
 10
-200.0
 20
0.0
 30
0.0
 11
-210.0
 21
0.0
 31
0.0
  0
LINE
  5
3C4
330
1F
100
AcDbEntity
  8
ZUWAKU
  6
Continuous
 62
     7
370
    18
100
AcDbLine
 10
-166.666667
 20
-138.5
 30
0.0
 11
-166.666667
 21
-143.5
 31
0.0
  0
LINE
  5
3C5
330
1F
100
AcDbEntity
  8
ZUWAKU
  6
Continuous
 62
     7
370
    18
100
AcDbLine
 10
-133.333333
 20
-138.5
 30
0.0
 11
-133.333333
 21
-143.5
 31
0.0
  0
LINE
  5
3C6
330
1F
100
AcDbEntity
  8
ZUWAKU
  6
Continuous
 62
     7
370
    18
100
AcDbLine
 10
-100.0
 20
-138.5
 30
0.0
 11
-100.0
 21
-143.5
 31
0.0
  0
LINE
  5
3C7
330
1F
100
AcDbEntity
  8
ZUWAKU
  6
Continuous
 62
     7
370
    18
100
AcDbLine
 10
-66.66666699999999
 20
-138.5
 30
0.0
 11
-66.66666699999999
 21
-143.5
 31
0.0
  0
LINE
  5
3C8
330
1F
100
AcDbEntity
  8
ZUWAKU
  6
Continuous
 62
     7
370
    18
100
AcDbLine
 10
-33.33333300000001
 20
-138.5
 30
0.0
 11
-33.33333300000001
 21
-143.5
 31
0.0
  0
LINE
  5
3C9
330
1F
100
AcDbEntity
  8
ZUWAKU
  6
Continuous
 62
     7
370
    18
100
AcDbLine
 10
33.33333300000001
 20
-138.5
 30
0.0
 11
33.33333300000001
 21
-143.5
 31
0.0
  0
LINE
  5
3CA
330
1F
100
AcDbEntity
  8
ZUWAKU
  6
Continuous
 62
     7
370
    18
100
AcDbLine
 10
66.66666700000002
 20
-138.5
 30
0.0
 11
66.66666700000002
 21
-143.5
 31
0.0
  0
LINE
  5
3CB
330
1F
100
AcDbEntity
  8
ZUWAKU
  6
Continuous
 62
     7
370
    18
100
AcDbLine
 10
100.0
 20
-138.5
 30
0.0
 11
100.0
 21
-143.5
 31
0.0
  0
LINE
  5
3CC
330
1F
100
AcDbEntity
  8
ZUWAKU
  6
Continuous
 62
     7
370
    18
100
AcDbLine
 10
133.333333
 20
-138.5
 30
0.0
 11
133.333333
 21
-143.5
 31
0.0
  0
LINE
  5
3CD
330
1F
100
AcDbEntity
  8
ZUWAKU
  6
Continuous
 62
     7
370
    18
100
AcDbLine
 10
166.666667
 20
-138.5
 30
0.0
 11
166.666667
 21
-143.5
 31
0.0
  0
LINE
  5
3CE
330
1F
100
AcDbEntity
  8
ZUWAKU
  6
Continuous
 62
     7
370
    18
100
AcDbLine
 10
0.0
 20
-138.5
 30
0.0
 11
0.0
 21
-148.5
 31
0.0
  0
LINE
  5
3CF
330
1F
100
AcDbEntity
  8
ZUWAKU
  6
Continuous
 62
     7
370
    18
100
AcDbLine
 10
145.0
 20
-115.5
 30
0.0
 11
145.0
 21
-129.5
 31
0.0
  0
LINE
  5
3D0
330
1F
100
AcDbEntity
  8
ZUWAKU
  6
Continuous
 62
     7
370
    18
100
AcDbLine
 10
153.0
 20
-115.5
 30
0.0
 11
153.0
 21
-129.5
 31
0.0
  0
LINE
  5
3D1
330
1F
100
AcDbEntity
  8
ZUWAKU
  6
CENTER
 62
     7
370
    18
100
AcDbLine
 10
156.016667
 20
-122.741667
 30
0.0
 11
197.175
 21
-122.741667
 31
0.0
  0
LINE
  5
3D2
330
1F
100
AcDbEntity
  8
ZUWAKU
  6
CENTER
 62
     7
370
    18
100
AcDbLine
 10
163.991667
 20
-115.775
 30
0.0
 11
163.991667
 21
-129.158333
 31
0.0
  0
TEXT
  5
3D3
330
1F
100
AcDbEntity
  8
ZUWAKU
 62
     3
100
AcDbText
 10
201.0
 20
119.6875
 30
0.0
 40
3.0
  1
A
 41
0.8214705882352961
  7
dcStyle0
 72
     5
 11
202.995
 21
119.6875
 31
0.0
100
AcDbText
  0
TEXT
  5
3D4
330
1F
100
AcDbEntity
  8
ZUWAKU
 62
     3
100
AcDbText
 10
201.0
 20
85.0625
 30
0.0
 40
3.0
  1
B
 41
0.7758333333333352
  7
dcStyle0
 72
     5
 11
202.995
 21
85.0625
 31
0.0
100
AcDbText
  0
TEXT
  5
3D5
330
1F
100
AcDbEntity
  8
ZUWAKU
 62
     3
100
AcDbText
 10
201.0
 20
50.4375
 30
0.0
 40
3.0
  1
C
 41
0.7758333333333352
  7
dcStyle0
 72
     5
 11
202.995
 21
50.4375
 31
0.0
100
AcDbText
  0
TEXT
  5
3D6
330
1F
100
AcDbEntity
  8
ZUWAKU
 62
     3
100
AcDbText
 10
201.0
 20
15.8125
 30
0.0
 40
3.0
  1
D
 41
0.7758333333333352
  7
dcStyle0
 72
     5
 11
202.995
 21
15.8125
 31
0.0
100
AcDbText
  0
TEXT
  5
3D7
330
1F
100
AcDbEntity
  8
ZUWAKU
 62
     3
100
AcDbText
 10
201.0
 20
-18.8125
 30
0.0
 40
3.0
  1
E
 41
0.8214705882352961
  7
dcStyle0
 72
     5
 11
202.995
 21
-18.8125
 31
0.0
100
AcDbText
  0
TEXT
  5
3D8
330
1F
100
AcDbEntity
  8
ZUWAKU
 62
     3
100
AcDbText
 10
201.0
 20
-53.4375
 30
0.0
 40
3.0
  1
F
 41
0.8214705882352961
  7
dcStyle0
 72
     5
 11
202.995
 21
-53.4375
 31
0.0
100
AcDbText
  0
TEXT
  5
3D9
330
1F
100
AcDbEntity
  8
ZUWAKU
 62
     3
100
AcDbText
 10
201.0
 20
-88.0625
 30
0.0
 40
3.0
  1
G
 41
0.7758333333333352
  7
dcStyle0
 72
     5
 11
202.995
 21
-88.0625
 31
0.0
100
AcDbText
  0
TEXT
  5
3DA
330
1F
100
AcDbEntity
  8
ZUWAKU
 62
     3
100
AcDbText
 10
201.0
 20
-122.6875
 30
0.0
 40
3.0
  1
H
 41
0.7758333333333352
  7
dcStyle0
 72
     5
 11
202.995
 21
-122.6875
 31
0.0
100
AcDbText
  0
TEXT
  5
3DB
330
1F
100
AcDbEntity
  8
ZUWAKU
 62
     3
100
AcDbText
 10
-184.333334
 20
139.5
 30
0.0
 40
3.0
  1
1
 41
1.269545454545457
  7
dcStyle0
 72
     5
 11
-182.338334
 21
139.5
 31
0.0
100
AcDbText
  0
TEXT
  5
3DC
330
1F
100
AcDbEntity
  8
ZUWAKU
 62
     3
100
AcDbText
 10
-151.0
 20
139.5
 30
0.0
 40
3.0
  1
2
 41
0.8214705882352961
  7
dcStyle0
 72
     5
 11
-149.005
 21
139.5
 31
0.0
100
AcDbText
  0
TEXT
  5
3DD
330
1F
100
AcDbEntity
  8
ZUWAKU
 62
     3
100
AcDbText
 10
-117.666664
 20
139.5
 30
0.0
 40
3.0
  1
3
 41
0.8214705882352961
  7
dcStyle0
 72
     5
 11
-115.671664
 21
139.5
 31
0.0
100
AcDbText
  0
TEXT
  5
3DE
330
1F
100
AcDbEntity
  8
ZUWAKU
 62
     3
100
AcDbText
 10
-84.333336
 20
139.5
 30
0.0
 40
3.0
  1
4
 41
0.7758333333333352
  7
dcStyle0
 72
     5
 11
-82.338336
 21
139.5
 31
0.0
100
AcDbText
  0
TEXT
  5
3DF
330
1F
100
AcDbEntity
  8
ZUWAKU
 62
     3
100
AcDbText
 10
-51.0
 20
139.5
 30
0.0
 40
3.0
  1
5
 41
0.8214705882352932
  7
dcStyle0
 72
     5
 11
-49.005
 21
139.5
 31
0.0
100
AcDbText
  0
TEXT
  5
3E0
330
1F
100
AcDbEntity
  8
ZUWAKU
 62
     3
100
AcDbText
 10
-17.66667200000001
 20
139.5
 30
0.0
 40
3.0
  1
6
 41
0.8214705882352946
  7
dcStyle0
 72
     5
 11
-15.671672
 21
139.5
 31
0.0
100
AcDbText
  0
TEXT
  5
3E1
330
1F
100
AcDbEntity
  8
ZUWAKU
 62
     3
100
AcDbText
 10
15.66667200000001
 20
139.5
 30
0.0
 40
3.0
  1
7
 41
0.8214705882352946
  7
dcStyle0
 72
     5
 11
17.66167200000001
 21
139.5
 31
0.0
100
AcDbText
  0
TEXT
  5
3E2
330
1F
100
AcDbEntity
  8
ZUWAKU
 62
     3
100
AcDbText
 10
49.0
 20
139.5
 30
0.0
 40
3.0
  1
8
 41
0.8214705882352932
  7
dcStyle0
 72
     5
 11
50.995
 21
139.5
 31
0.0
100
AcDbText
  0
TEXT
  5
3E3
330
1F
100
AcDbEntity
  8
ZUWAKU
 62
     3
100
AcDbText
 10
82.33334400000001
 20
139.5
 30
0.0
 40
3.0
  1
9
 41
0.872812500000002
  7
dcStyle0
 72
     5
 11
84.32834400000002
 21
139.5
 31
0.0
100
AcDbText
  0
TEXT
  5
3E4
330
1F
100
AcDbEntity
  8
ZUWAKU
 62
     3
100
AcDbText
 10
114.666656
 20
139.5
 30
0.0
 40
3.0
  1
10
 41
0.754864864864864
  7
dcStyle0
 72
     5
 11
118.656656
 21
139.5
 31
0.0
100
AcDbText
  0
TEXT
  5
3E5
330
1F
100
AcDbEntity
  8
ZUWAKU
 62
     3
100
AcDbText
 10
148.0
 20
139.5
 30
0.0
 40
3.0
  1
11
 41
0.900967741935486
  7
dcStyle0
 72
     5
 11
151.99
 21
139.5
 31
0.0
100
AcDbText
  0
TEXT
  5
3E6
330
1F
100
AcDbEntity
  8
ZUWAKU
 62
     3
100
AcDbText
 10
181.333344
 20
139.5
 30
0.0
 40
3.0
  1
12
 41
0.7548648648648667
  7
dcStyle0
 72
     5
 11
185.323344
 21
139.5
 31
0.0
100
AcDbText
  0
TEXT
  5
3E7
330
1F
100
AcDbEntity
  8
ZUWAKU
 62
     3
100
AcDbText
 10
-203.0
 20
119.6875
 30
0.0
 40
3.0
  1
A
 41
0.8214705882352961
  7
dcStyle0
 72
     5
 11
-201.005
 21
119.6875
 31
0.0
100
AcDbText
  0
TEXT
  5
3E8
330
1F
100
AcDbEntity
  8
ZUWAKU
 62
     3
100
AcDbText
 10
-203.0
 20
85.0625
 30
0.0
 40
3.0
  1
B
 41
0.7758333333333352
  7
dcStyle0
 72
     5
 11
-201.005
 21
85.0625
 31
0.0
100
AcDbText
  0
TEXT
  5
3E9
330
1F
100
AcDbEntity
  8
ZUWAKU
 62
     3
100
AcDbText
 10
-203.0
 20
50.4375
 30
0.0
 40
3.0
  1
C
 41
0.7758333333333352
  7
dcStyle0
 72
     5
 11
-201.005
 21
50.4375
 31
0.0
100
AcDbText
  0
TEXT
  5
3EA
330
1F
100
AcDbEntity
  8
ZUWAKU
 62
     3
100
AcDbText
 10
-203.0
 20
15.8125
 30
0.0
 40
3.0
  1
D
 41
0.7758333333333352
  7
dcStyle0
 72
     5
 11
-201.005
 21
15.8125
 31
0.0
100
AcDbText
  0
TEXT
  5
3EB
330
1F
100
AcDbEntity
  8
ZUWAKU
 62
     3
100
AcDbText
 10
-203.0
 20
-18.8125
 30
0.0
 40
3.0
  1
E
 41
0.8214705882352961
  7
dcStyle0
 72
     5
 11
-201.005
 21
-18.8125
 31
0.0
100
AcDbText
  0
TEXT
  5
3EC
330
1F
100
AcDbEntity
  8
ZUWAKU
 62
     3
100
AcDbText
 10
-203.0
 20
-53.4375
 30
0.0
 40
3.0
  1
F
 41
0.8214705882352961
  7
dcStyle0
 72
     5
 11
-201.005
 21
-53.4375
 31
0.0
100
AcDbText
  0
TEXT
  5
3ED
330
1F
100
AcDbEntity
  8
ZUWAKU
 62
     3
100
AcDbText
 10
-203.0
 20
-88.0625
 30
0.0
 40
3.0
  1
G
 41
0.7758333333333352
  7
dcStyle0
 72
     5
 11
-201.005
 21
-88.0625
 31
0.0
100
AcDbText
  0
TEXT
  5
3EE
330
1F
100
AcDbEntity
  8
ZUWAKU
 62
     3
100
AcDbText
 10
-203.0
 20
-122.6875
 30
0.0
 40
3.0
  1
H
 41
0.7758333333333352
  7
dcStyle0
 72
     5
 11
-201.005
 21
-122.6875
 31
0.0
100
AcDbText
  0
TEXT
  5
3EF
330
1F
100
AcDbEntity
  8
ZUWAKU
 62
     3
100
AcDbText
 10
-184.333334
 20
-142.5
 30
0.0
 40
3.0
  1
1
 41
1.269545454545457
  7
dcStyle0
 72
     5
 11
-182.338334
 21
-142.5
 31
0.0
100
AcDbText
  0
TEXT
  5
3F0
330
1F
100
AcDbEntity
  8
ZUWAKU
 62
     3
100
AcDbText
 10
-151.0
 20
-142.5
 30
0.0
 40
3.0
  1
2
 41
0.8214705882352961
  7
dcStyle0
 72
     5
 11
-149.005
 21
-142.5
 31
0.0
100
AcDbText
  0
TEXT
  5
3F1
330
1F
100
AcDbEntity
  8
ZUWAKU
 62
     3
100
AcDbText
 10
-117.666664
 20
-142.5
 30
0.0
 40
3.0
  1
3
 41
0.8214705882352961
  7
dcStyle0
 72
     5
 11
-115.671664
 21
-142.5
 31
0.0
100
AcDbText
  0
TEXT
  5
3F2
330
1F
100
AcDbEntity
  8
ZUWAKU
 62
     3
100
AcDbText
 10
-84.333336
 20
-142.5
 30
0.0
 40
3.0
  1
4
 41
0.7758333333333352
  7
dcStyle0
 72
     5
 11
-82.338336
 21
-142.5
 31
0.0
100
AcDbText
  0
TEXT
  5
3F3
330
1F
100
AcDbEntity
  8
ZUWAKU
 62
     3
100
AcDbText
 10
-51.0
 20
-142.5
 30
0.0
 40
3.0
  1
5
 41
0.8214705882352932
  7
dcStyle0
 72
     5
 11
-49.005
 21
-142.5
 31
0.0
100
AcDbText
  0
TEXT
  5
3F4
330
1F
100
AcDbEntity
  8
ZUWAKU
 62
     3
100
AcDbText
 10
-17.66667200000001
 20
-142.5
 30
0.0
 40
3.0
  1
6
 41
0.8214705882352946
  7
dcStyle0
 72
     5
 11
-15.671672
 21
-142.5
 31
0.0
100
AcDbText
  0
TEXT
  5
3F5
330
1F
100
AcDbEntity
  8
ZUWAKU
 62
     3
100
AcDbText
 10
15.66667200000001
 20
-142.5
 30
0.0
 40
3.0
  1
7
 41
0.8214705882352946
  7
dcStyle0
 72
     5
 11
17.66167200000001
 21
-142.5
 31
0.0
100
AcDbText
  0
TEXT
  5
3F6
330
1F
100
AcDbEntity
  8
ZUWAKU
 62
     3
100
AcDbText
 10
49.0
 20
-142.5
 30
0.0
 40
3.0
  1
8
 41
0.8214705882352932
  7
dcStyle0
 72
     5
 11
50.995
 21
-142.5
 31
0.0
100
AcDbText
  0
TEXT
  5
3F7
330
1F
100
AcDbEntity
  8
ZUWAKU
 62
     3
100
AcDbText
 10
82.33334400000001
 20
-142.5
 30
0.0
 40
3.0
  1
9
 41
0.872812500000002
  7
dcStyle0
 72
     5
 11
84.32834400000002
 21
-142.5
 31
0.0
100
AcDbText
  0
TEXT
  5
3F8
330
1F
100
AcDbEntity
  8
ZUWAKU
 62
     3
100
AcDbText
 10
114.666656
 20
-142.5
 30
0.0
 40
3.0
  1
10
 41
0.754864864864864
  7
dcStyle0
 72
     5
 11
118.656656
 21
-142.5
 31
0.0
100
AcDbText
  0
TEXT
  5
3F9
330
1F
100
AcDbEntity
  8
ZUWAKU
 62
     3
100
AcDbText
 10
148.0
 20
-142.5
 30
0.0
 40
3.0
  1
11
 41
0.900967741935486
  7
dcStyle0
 72
     5
 11
151.99
 21
-142.5
 31
0.0
100
AcDbText
  0
TEXT
  5
3FA
330
1F
100
AcDbEntity
  8
ZUWAKU
 62
     3
100
AcDbText
 10
181.333344
 20
-142.5
 30
0.0
 40
3.0
  1
12
 41
0.7548648648648667
  7
dcStyle0
 72
     5
 11
185.323344
 21
-142.5
 31
0.0
100
AcDbText
  0
TEXT
  5
3FB
330
1F
100
AcDbEntity
  8
ZUWAKU
 62
     3
100
AcDbText
 10
167.5
 20
-99.506168
 30
0.0
 40
4.0
  1
2025年-月-日
 41
0.6747540983606561
  7
dcStyle0
 72
     5
 11
191.02
 21
-99.506168
 31
0.0
100
AcDbText
  0
TEXT
  5
3FC
330
1F
100
AcDbEntity
  8
ZUWAKU
 62
     3
100
AcDbText
 10
145.150404368563
 20
-125.0
 30
0.0
 40
4.0
  1
図法
 41
1.145454545454544
  7
dcStyle0
 72
     5
 11
152.3504043685629
 21
-125.0
 31
0.0
100
AcDbText
  0
TEXT
  5
3FD
330
1F
100
AcDbEntity
  8
ZUWAKU
 62
     3
100
AcDbText
 10
166.5200000000255
 20
-93.50616500000001
 30
0.0
 40
4.0
  1
2025年9月28日
 41
0.7003664921465967
  7
dcStyle0
 72
     5
 11
192.0000000000255
 21
-93.50616500000001
 31
0.0
100
AcDbText
  0
CIRCLE
  5
3FE
330
1F
100
AcDbEntity
  8
ZUWAKU
  6
Continuous
 62
     3
370
    18
100
AcDbCircle
 10
163.991667
 20
-122.741667
 30
0.0
 40
2.535374725755567
  0
CIRCLE
  5
3FF
330
1F
100
AcDbEntity
  8
ZUWAKU
  6
Continuous
 62
     3
370
    18
100
AcDbCircle
 10
163.991667
 20
-122.741667
 30
0.0
 40
5.95833333333337
  0
LINE
  5
400
330
1F
100
AcDbEntity
  8
ZUWAKU
  6
Continuous
 62
     3
370
    18
100
AcDbLine
 10
176.733333
 20
-120.206292
 30
0.0
 11
176.733333
 21
-125.277041
 31
0.0
  0
LINE
  5
401
330
1F
100
AcDbEntity
  8
ZUWAKU
  6
Continuous
 62
     3
370
    18
100
AcDbLine
 10
190.391667
 20
-116.783333
 30
0.0
 11
190.391667
 21
-128.7
 31
0.0
  0
LINE
  5
402
330
1F
100
AcDbEntity
  8
ZUWAKU
  6
Continuous
 62
     3
370
    18
100
AcDbLine
 10
176.733333
 20
-120.206292
 30
0.0
 11
190.391667
 21
-116.783333
 31
0.0
  0
LINE
  5
403
330
1F
100
AcDbEntity
  8
ZUWAKU
  6
Continuous
 62
     3
370
    18
100
AcDbLine
 10
176.733333
 20
-125.277041
 30
0.0
 11
190.391667
 21
-128.7
 31
0.0
  0
TEXT
  5
404
330
1F
100
AcDbEntity
  8
ZUWAKU
 62
     7
100
AcDbText
 10
130.2660209442288
 20
-103.308334
 30
0.0
 40
6.0
  1
SUZUKI
 41
0.4623853211009176
  7
dcStyle0
 72
     5
 11
144.6660209442288
 21
-103.308334
 31
0.0
100
AcDbText
  0
TEXT
  5
405
330
1F
100
AcDbEntity
  8
ZUWAKU
 62
     7
100
AcDbText
 10
175.633331
 20
-106.516666
 30
0.0
 40
6.0
  1
1：1
 41
0.7457142857142857
  7
dcStyle0
 72
     5
 11
186.073331
 21
-106.516666
 31
0.0
100
AcDbText
  0
TEXT
  5
406
330
1F
100
AcDbEntity
  8
ZUWAKU
 62
     7
100
AcDbText
 10
119.3875543478307
 20
-126.133333
 30
0.0
 40
4.5
  1
SUS304
 41
0.69825
  7
dcStyle0
 72
     5
 11
137.3425543478307
 21
-126.133333
 31
0.0
100
AcDbText
  0
TEXT
  5
407
330
1F
100
AcDbEntity
  8
ZUWAKU
 62
     7
100
AcDbText
 10
111.7740128822511
 20
-136.95
 30
0.0
 40
5.0
  1
com-2117  PSLJC2-00S304A
 41
0.6798377281947265
  7
dcStyle0
 72
     5
 11
191.5740128822512
 21
-136.95
 31
0.0
100
AcDbText
  0
TEXT
  5
408
330
1F
100
AcDbEntity
  8
ZUWAKU
 62
     4
100
AcDbText
 10
129.7221319130123
 20
-113.2748703946914
 30
0.0
 40
3.3
  1
配管サポート　２．０Ｓ　L字ステー付
 41
0.9187499999999998
  7
dcStyle0
 72
     5
 11
175.9221319130123
 21
-113.2748703946914
 31
0.0
100
AcDbText
  0
LINE
  5
409
330
1F
100
AcDbEntity
  8
ZUWAKU
  6
Continuous
 62
     3
370
    13
100
AcDbLine
 10
129.3198790475204
 20
132.1739358470646
 30
0.0
 11
198.4408297517456
 21
132.1739358470646
 31
0.0
  0
LINE
  5
40A
330
1F
100
AcDbEntity
  8
ZUWAKU
  6
Continuous
 62
     3
370
    13
100
AcDbLine
 10
129.3198790475204
 20
134.1739358470646
 30
0.0
 11
198.4408297517456
 21
134.1739358470646
 31
0.0
  0
TEXT
  5
40B
330
1F
100
AcDbEntity
  8
ZUWAKU
 62
     2
100
AcDbText
 10
131.3822288127785
 20
131.1606435935433
 30
0.0
 40
4.5
  1
( 
 41
0.8400000000000015
  7
dcStyle0
 72
     5
 11
137.6822288127785
 21
131.1606435935433
 31
0.0
100
AcDbText
  0
TEXT
  5
40C
330
1F
100
AcDbEntity
  8
ZUWAKU
 62
     2
100
AcDbText
 10
173.8887090674116
 20
131.1606435935433
 30
0.0
 40
4.5
  1
(      )
 41
0.7839999999999996
  7
dcStyle0
 72
     5
 11
199.0887090674116
 21
131.1606435935433
 31
0.0
100
AcDbText
  0
TEXT
  5
40D
330
1F
100
AcDbEntity
  8
ZUWAKU
 62
     2
100
AcDbText
 10
119.9484492409228
 20
123.5439080973931
 30
0.0
 40
3.5
  1
表面仕上げ　＃４００　トスル。
 41
0.9438202247191011
  7
dcStyle0
 72
     5
 11
161.9484492409228
 21
123.5439080973931
 31
0.0
100
AcDbText
  0
POINT
  5
40E
330
1F
100
AcDbEntity
  8
0
  6
Continuous
 62
     5
100
AcDbPoint
 10
0.0
 20
11.23913043478261
 30
0.0
  0
LINE
  5
40F
330
1F
100
AcDbEntity
  8
0
  6
DASHED2
 62
     4
370
    13
100
AcDbLine
 10
-83.76811594202898
 20
42.99683144712986
 30
0.0
 11
-99.76811594202897
 21
42.99683144712986
 31
0.0
  0
ARC
  5
410
330
1F
100
AcDbEntity
  8
0
  6
DASHED2
 62
     4
370
    13
100
AcDbCircle
 10
-83.58002631355664
 20
46.59683144712987
 30
0.0
 40
3.604910221952688
100
AcDbArc
 50
267.0091800186053
 51
341.27440057204
  0
LINE
  5
411
330
1F
100
AcDbEntity
  8
0
  6
DASHED2
 62
     4
370
    13
100
AcDbLine
 10
-83.76811594202898
 20
33.19683144712985
 30
0.0
 11
-99.76811594202897
 21
33.19683144712985
 31
0.0
  0
ARC
  5
412
330
1F
100
AcDbEntity
  8
0
  6
DASHED2
 62
     4
370
    13
100
AcDbCircle
 10
-83.58002631355664
 20
29.59683144712984
 30
0.0
 40
3.604910221952688
100
AcDbArc
 50
18.72559942796006
 51
92.99081998139472
  0
LINE
  5
413
330
1F
100
AcDbEntity
  8
0
  6
DASHED2
 62
     4
370
    13
100
AcDbLine
 10
-23.76811594202897
 20
42.99683144712986
 30
0.0
 11
-7.768115942028984
 21
42.99683144712986
 31
0.0
  0
ARC
  5
414
330
1F
100
AcDbEntity
  8
0
  6
DASHED2
 62
     4
370
    13
100
AcDbCircle
 10
-23.95620557050131
 20
46.59683144712987
 30
0.0
 40
3.604910221952688
100
AcDbArc
 50
198.72559942796
 51
272.9908199813947
  0
LINE
  5
415
330
1F
100
AcDbEntity
  8
0
  6
DASHED2
 62
     4
370
    13
100
AcDbLine
 10
-23.76811594202897
 20
33.19683144712985
 30
0.0
 11
-7.768115942028984
 21
33.19683144712985
 31
0.0
  0
ARC
  5
416
330
1F
100
AcDbEntity
  8
0
  6
DASHED2
 62
     4
370
    13
100
AcDbCircle
 10
-23.95620557050131
 20
29.59683144712984
 30
0.0
 40
3.604910221952688
100
AcDbArc
 50
87.00918001860529
 51
161.27440057204
  0
ARC
  5
417
330
1F
100
AcDbEntity
  8
0
  6
DASHED2
 62
     4
370
    18
100
AcDbCircle
 10
-53.76811594202898
 20
38.09683144712985
 30
0.0
 40
27.4
100
AcDbArc
 50
195.5441903174377
 51
270.0
  0
ARC
  5
418
330
1F
100
AcDbEntity
  8
0
  6
DASHED2
 62
     4
370
    18
100
AcDbCircle
 10
-53.76811594202898
 20
38.09683144712985
 30
0.0
 40
27.4
100
AcDbArc
 50
90.0
 51
164.4558096825623
  0
ARC
  5
419
330
1F
100
AcDbEntity
  8
0
  6
DASHED2
 62
     4
370
    18
100
AcDbCircle
 10
-53.76811594202898
 20
38.09683144712985
 30
0.0
 40
27.4
100
AcDbArc
 50
15.54419031743775
 51
90.00000000000001
  0
ARC
  5
41A
330
1F
100
AcDbEntity
  8
0
  6
DASHED2
 62
     4
370
    18
100
AcDbCircle
 10
-53.76811594202898
 20
38.09683144712985
 30
0.0
 40
27.4
100
AcDbArc
 50
270.0
 51
344.4558096825622
  0
CIRCLE
  5
41B
330
1F
100
AcDbEntity
  8
0
  6
DASHED2
 62
     4
370
    18
100
AcDbCircle
 10
-53.76811594202898
 20
-108.0670968139054
 30
0.0
 40
9.5
  0
CIRCLE
  5
41C
330
1F
100
AcDbEntity
  8
0
  6
DASHED2
 62
     4
370
    18
100
AcDbCircle
 10
-53.76811594202898
 20
-108.0670968139054
 30
0.0
 40
8.299999999999997
  0
INSERT
  5
41D
330
1F
100
AcDbEntity
  8
0
  6
Continuous
100
AcDbBlockReference
  2
DC_GROUP_COM-2117  PSLJC2-00S304A_1
 10
0.0
 20
0.0
 30
0.0
  0
INSERT
  5
41E
330
1F
100
AcDbEntity
  8
0
  6
Continuous
100
AcDbBlockReference
  2
DC_GROUP_COM-2117  PSLJC2-00S304A_2
 10
0.0
 20
0.0
 30
0.0
  0
INSERT
  5
41F
330
1F
100
AcDbEntity
  8
0
  6
Continuous
100
AcDbBlockReference
  2
DC_GROUP_COM-2117  PSLJC2-00S304A_3
 10
0.0
 20
0.0
 30
0.0
  0
INSERT
  5
420
330
1F
100
AcDbEntity
  8
0
  6
Continuous
100
AcDbBlockReference
  2
DC_GROUP_COM-2117  PSLJC2-00S304A_5
 10
0.0
 20
0.0
 30
0.0
  0
INSERT
  5
421
330
1F
100
AcDbEntity
  8
0
  6
Continuous
100
AcDbBlockReference
  2
DC_GROUP_COM-2117  PSLJC2-00S304A_6
 10
0.0
 20
0.0
 30
0.0
  0
INSERT
  5
422
330
1F
100
AcDbEntity
  8
0
  6
Continuous
100
AcDbBlockReference
  2
DC_GROUP_COM-2117  PSLJC2-00S304A_7
 10
0.0
 20
0.0
 30
0.0
  0
INSERT
  5
423
330
1F
100
AcDbEntity
  8
0
  6
Continuous
100
AcDbBlockReference
  2
DC_GROUP_COM-2117  PSLJC2-00S304A_8
 10
0.0
 20
0.0
 30
0.0
  0
INSERT
  5
424
330
1F
100
AcDbEntity
  8
0
  6
Continuous
100
AcDbBlockReference
  2
DC_GROUP_COM-2117  PSLJC2-00S304A_9
 10
0.0
 20
0.0
 30
0.0
  0
INSERT
  5
425
330
1F
100
AcDbEntity
  8
0
  6
Continuous
100
AcDbBlockReference
  2
DC_GROUP_COM-2117  PSLJC2-00S304A_10
 10
0.0
 20
0.0
 30
0.0
  0
INSERT
  5
426
330
1F
100
AcDbEntity
  8
0
  6
Continuous
100
AcDbBlockReference
  2
DC_GROUP_COM-2117  PSLJC2-00S304A_11
 10
0.0
 20
0.0
 30
0.0
  0
DIMENSION
  5
427
330
1F
100
AcDbEntity
  8
0
  6
Continuous
370
    13
100
AcDbDimension
280
     0
  2
*D12
 10
-7.768115942028984
 20
82.5
 30
0.0
 11
-53.76811594202898
 21
82.5
 31
0.0
 70
   160
 71
     8
 42
-1.0
 73
     0
 74
     0
 75
     0
  3
dc_Rotated
100
AcDbAlignedDimension
 13
-99.76811594202897
 23
95.32388458722646
 33
0.0
 14
-7.768115942028984
 24
95.32388458722646
 34
0.0
100
AcDbRotatedDimension
1001
ACAD
1000
DSTYLE
1002
{
1070
   144
1040
1.0
1070
   274
1070
     4
1070
    41
1040
3.000001907348633
1070
    79
1070
     2
1070
   343
1005
1C6
1070
   344
1005
1C6
1070
   176
1070
     2
1070
   177
1070
     2
1070
   178
1070
     4
1070
   271
1070
     2
1070
    44
1040
1.0
1070
    42
1040
1.0
1070
   147
1040
1.0
1070
   173
1070
     1
1070
    77
1070
     3
1070
    73
1070
     0
1070
   172
1070
     1
1070
    74
1070
     0
1070
   283
1070
     0
1070
   340
1005
1CE
1070
   140
1040
4.5
1070
   284
1070
     8
1070
   288
1070
     1
1070
    78
1070
     8
1070
    90
1070
     1
1002
}
  0
DIMENSION
  5
429
330
1F
100
AcDbEntity
  8
0
  6
Continuous
370
    13
100
AcDbDimension
280
     0
  2
*D13
 10
-86.76811594202897
 20
10.03957086173627
 30
0.0
 11
-101.5248323771342
 21
10.03957086173627
 31
0.0
 70
   160
  1
M<>
 71
     8
 42
-1.0
 73
     0
 74
     0
 75
     0
  3
dc_Rotated
100
AcDbAlignedDimension
 13
-94.76811594202897
 23
20.79683144712985
 33
0.0
 14
-86.76811594202897
 24
20.79683144712985
 34
0.0
100
AcDbRotatedDimension
1001
ACAD
1000
DSTYLE
1002
{
1070
   144
1040
1.0
1070
   274
1070
     4
1070
    41
1040
3.000001907348633
1070
    79
1070
     2
1070
   343
1005
1C6
1070
   344
1005
1C6
1070
   176
1070
     2
1070
   177
1070
     2
1070
   178
1070
     4
1070
   271
1070
     2
1070
    44
1040
1.0
1070
    42
1040
1.0
1070
   147
1040
1.0
1070
   173
1070
     1
1070
    77
1070
     3
1070
    73
1070
     0
1070
   172
1070
     1
1070
    74
1070
     0
1070
   283
1070
     0
1070
   340
1005
1CE
1070
   140
1040
4.5
1070
   284
1070
     8
1070
   288
1070
     1
1070
    78
1070
     8
1070
    90
1070
     1
1002
}
  0
DIMENSION
  5
42A
330
1F
100
AcDbEntity
  8
0
  6
Continuous
370
    13
100
AcDbDimension
280
     0
  2
*D14
 10
-107.8928423308218
 20
44.59683144712986
 30
0.0
 11
-107.8928423308218
 21
32.09683144712986
 31
0.0
 70
   160
 71
     8
 42
-1.0
 73
     0
 74
     0
 75
     0
  3
dc_Rotated
100
AcDbAlignedDimension
 13
-93.56811594202898
 23
19.59683144712986
 33
0.0
 14
-99.76811594202897
 24
44.59683144712986
 34
0.0
 50
90.0
100
AcDbRotatedDimension
1001
ACAD
1000
DSTYLE
1002
{
1070
   144
1040
1.0
1070
   274
1070
     4
1070
    41
1040
3.000001907348633
1070
    79
1070
     2
1070
   343
1005
1C6
1070
   344
1005
1C6
1070
   176
1070
     2
1070
   177
1070
     2
1070
   178
1070
     4
1070
   271
1070
     2
1070
    44
1040
1.0
1070
    42
1040
1.0
1070
   147
1040
1.0
1070
   173
1070
     1
1070
    77
1070
     3
1070
    73
1070
     0
1070
   172
1070
     1
1070
    74
1070
     0
1070
   283
1070
     0
1070
   340
1005
1CE
1070
   140
1040
4.5
1070
   284
1070
     8
1070
   288
1070
     1
1070
    78
1070
     8
1070
    90
1070
     1
1002
}
  0
DIMENSION
  5
42B
330
1F
100
AcDbEntity
  8
0
  6
Continuous
370
    13
100
AcDbDimension
280
     0
  2
*D15
 10
13.7391304347826
 20
117.3238845872265
 30
0.0
 11
13.7391304347826
 21
105.3238845872265
 31
0.0
 70
   160
 71
     8
 42
-1.0
 73
     0
 74
     0
 75
     0
  3
dc_Rotated
100
AcDbAlignedDimension
 13
-9.768115942028984
 23
93.32388458722646
 33
0.0
 14
-9.768115942028984
 24
117.3238845872265
 34
0.0
 50
90.0
100
AcDbRotatedDimension
1001
ACAD
1000
DSTYLE
1002
{
1070
   144
1040
1.0
1070
   274
1070
     4
1070
    41
1040
3.000001907348633
1070
    79
1070
     2
1070
   343
1005
1C6
1070
   344
1005
1C6
1070
   176
1070
     2
1070
   177
1070
     2
1070
   178
1070
     4
1070
   271
1070
     2
1070
    44
1040
1.0
1070
    42
1040
1.0
1070
   147
1040
1.0
1070
   173
1070
     1
1070
    77
1070
     3
1070
    73
1070
     0
1070
   172
1070
     1
1070
    74
1070
     0
1070
   283
1070
     0
1070
   340
1005
1CE
1070
   140
1040
4.5
1070
   284
1070
     8
1070
   288
1070
     1
1070
    78
1070
     8
1070
    90
1070
     1
1002
}
  0
INSERT
  5
42C
330
1F
100
AcDbEntity
  8
0
  6
Continuous
100
AcDbBlockReference
  2
DC_IMAGEDIMGROUP_1
 10
0.0
 20
0.0
 30
0.0
  0
DIMENSION
  5
42D
330
1F
100
AcDbEntity
  8
0
  6
Continuous
370
    13
100
AcDbDimension
280
     0
  2
*D17
 10
-14.10869565217391
 20
9.096831447129858
 30
0.0
 11
-14.10869565217391
 21
-13.40316855287014
 31
0.0
 70
   160
 71
     8
 42
-1.0
 73
     0
 74
     0
 75
     0
  3
dc_Rotated
100
AcDbAlignedDimension
 13
-43.26811594202898
 23
-35.90316855287014
 33
0.0
 14
-47.76811594202898
 24
9.096831447129858
 34
0.0
 50
90.0
100
AcDbRotatedDimension
1001
ACAD
1000
DSTYLE
1002
{
1070
   144
1040
1.0
1070
   274
1070
     4
1070
    41
1040
3.000001907348633
1070
    79
1070
     2
1070
   343
1005
1C6
1070
   344
1005
1C6
1070
   176
1070
     2
1070
   177
1070
     2
1070
   178
1070
     4
1070
   271
1070
     2
1070
    44
1040
1.0
1070
    42
1040
1.0
1070
   147
1040
1.0
1070
   173
1070
     1
1070
    77
1070
     3
1070
    73
1070
     0
1070
   172
1070
     1
1070
    74
1070
     0
1070
   283
1070
     0
1070
   340
1005
1CE
1070
   140
1040
4.5
1070
   284
1070
     8
1070
   288
1070
     1
1070
    78
1070
     8
1070
    90
1070
     1
1002
}
  0
INSERT
  5
42E
330
1F
100
AcDbEntity
  8
0
  6
Continuous
100
AcDbBlockReference
  2
DC_GROUP_COM-2117  PSLJC2-00S304A_17
 10
0.0
 20
0.0
 30
0.0
  0
INSERT
  5
42F
330
1F
100
AcDbEntity
  8
0
  6
Continuous
100
AcDbBlockReference
  2
DC_GROUP_COM-2117  PSLJC2-00S304A_18
 10
0.0
 20
0.0
 30
0.0
  0
INSERT
  5
430
330
1F
100
AcDbEntity
  8
0
  6
Continuous
100
AcDbBlockReference
  2
DC_GROUP_COM-2117  PSLJC2-00S304A_19
 10
0.0
 20
0.0
 30
0.0
  0
INSERT
  5
431
330
1F
100
AcDbEntity
  8
0
  6
Continuous
100
AcDbBlockReference
  2
DC_GROUP_COM-2117  PSLJC2-00S304A_20
 10
0.0
 20
0.0
 30
0.0
  0
INSERT
  5
432
330
1F
100
AcDbEntity
  8
0
  6
Continuous
100
AcDbBlockReference
  2
DC_GROUP_COM-2117  PSLJC2-00S304A_21
 10
0.0
 20
0.0
 30
0.0
  0
INSERT
  5
433
330
1F
100
AcDbEntity
  8
0
  6
Continuous
100
AcDbBlockReference
  2
DC_GROUP_COM-2117  PSLJC2-00S304A_24
 10
0.0
 20
0.0
 30
0.0
  0
INSERT
  5
434
330
1F
100
AcDbEntity
  8
0
  6
Continuous
100
AcDbBlockReference
  2
DC_GROUP_COM-2117  PSLJC2-00S304A_27
 10
0.0
 20
0.0
 30
0.0
  0
INSERT
  5
435
330
1F
100
AcDbEntity
  8
0
  6
Continuous
100
AcDbBlockReference
  2
DC_GROUP_COM-2117  PSLJC2-00S304A_28
 10
0.0
 20
0.0
 30
0.0
  0
INSERT
  5
436
330
1F
100
AcDbEntity
  8
0
  6
Continuous
100
AcDbBlockReference
  2
DC_GROUP_COM-2117  PSLJC2-00S304A_29
 10
0.0
 20
0.0
 30
0.0
  0
DIMENSION
  5
437
330
1F
100
AcDbEntity
  8
0
  6
Continuous
370
    13
100
AcDbDimension
280
     0
  2
*D36
 10
-16.76811594202898
 20
72.93478260869566
 30
0.0
 11
-53.76811594202898
 21
72.93478260869566
 31
0.0
 70
   160
 71
     8
 42
-1.0
 73
     0
 74
     0
 75
     0
  3
dc_Rotated
100
AcDbAlignedDimension
 13
-90.76811594202897
 23
53.89683144712986
 33
0.0
 14
-16.76811594202898
 24
53.89683144712986
 34
0.0
100
AcDbRotatedDimension
1001
ACAD
1000
DSTYLE
1002
{
1070
   144
1040
1.0
1070
   274
1070
     4
1070
    41
1040
3.000001907348633
1070
    79
1070
     2
1070
   343
1005
1C6
1070
   344
1005
1C6
1070
   176
1070
     2
1070
   177
1070
     2
1070
   178
1070
     4
1070
   271
1070
     2
1070
    44
1040
1.0
1070
    42
1040
1.0
1070
   147
1040
1.0
1070
   173
1070
     1
1070
    77
1070
     3
1070
    73
1070
     0
1070
   172
1070
     1
1070
    74
1070
     0
1070
   283
1070
     0
1070
   340
1005
1CE
1070
   140
1040
4.5
1070
   284
1070
     8
1070
   288
1070
     1
1070
    78
1070
     8
1070
    90
1070
     1
1002
}
  0
DIMENSION
  5
438
330
1F
100
AcDbEntity
  8
0
  6
Continuous
370
    13
100
AcDbDimension
280
     0
  2
*D37
 10
18.26932668329177
 20
67.09683144712986
 30
0.0
 11
18.26932668329177
 21
15.59683144712985
 31
0.0
 70
   160
 71
     8
 42
-1.0
 73
     0
 74
     0
 75
     0
  3
dc_Rotated
100
AcDbAlignedDimension
 13
-45.26811594202898
 23
-35.90316855287014
 33
0.0
 14
-53.76811594202898
 24
67.09683144712986
 34
0.0
 50
90.0
100
AcDbRotatedDimension
1001
ACAD
1000
DSTYLE
1002
{
1070
   144
1040
1.0
1070
   274
1070
     4
1070
    41
1040
3.000001907348633
1070
    79
1070
     2
1070
   343
1005
1C6
1070
   344
1005
1C6
1070
   176
1070
     2
1070
   177
1070
     2
1070
   178
1070
     4
1070
   271
1070
     2
1070
    44
1040
1.0
1070
    42
1040
1.0
1070
   147
1040
1.0
1070
   173
1070
     1
1070
    77
1070
     3
1070
    73
1070
     0
1070
   172
1070
     1
1070
    74
1070
     0
1070
   283
1070
     0
1070
   340
1005
1CE
1070
   140
1040
4.5
1070
   284
1070
     8
1070
   288
1070
     1
1070
    78
1070
     8
1070
    90
1070
     1
1002
}
  0
DIMENSION
  5
439
330
1F
100
AcDbEntity
  8
0
  6
Continuous
370
    13
100
AcDbDimension
280
     0
  2
*D38
 10
6.418952618453866
 20
38.09683144712986
 30
0.0
 11
6.418952618453866
 21
1.096831447129857
 31
0.0
 70
   160
 71
     8
 42
-1.0
 73
     0
 74
     0
 75
     0
  3
dc_Rotated
100
AcDbAlignedDimension
 13
19.26932668329177
 23
-35.90316855287014
 33
0.0
 14
-7.768115942028977
 24
38.09683144712986
 34
0.0
 50
90.0
100
AcDbRotatedDimension
1001
ACAD
1000
DSTYLE
1002
{
1070
   144
1040
1.0
1070
   274
1070
     4
1070
    41
1040
3.000001907348633
1070
    79
1070
     2
1070
   343
1005
1C6
1070
   344
1005
1C6
1070
   176
1070
     2
1070
   177
1070
     2
1070
   178
1070
     4
1070
   271
1070
     2
1070
    44
1040
1.0
1070
    42
1040
1.0
1070
   147
1040
1.0
1070
   173
1070
     1
1070
    77
1070
     3
1070
    73
1070
     0
1070
   172
1070
     1
1070
    74
1070
     0
1070
   283
1070
     0
1070
   340
1005
1CE
1070
   140
1040
4.5
1070
   284
1070
     8
1070
   288
1070
     1
1070
    78
1070
     8
1070
    90
1070
     1
1002
}
  0
INSERT
  5
43A
330
1F
100
AcDbEntity
  8
0
  6
Continuous
100
AcDbBlockReference
  2
DC_GROUP_COM-2117  PSLJC2-00S304A_30
 10
0.0
 20
0.0
 30
0.0
  0
INSERT
  5
43B
330
1F
100
AcDbEntity
  8
0
  6
Continuous
100
AcDbBlockReference
  2
DC_GROUP_COM-2117  PSLJC2-00S304A_31
 10
0.0
 20
0.0
 30
0.0
  0
INSERT
  5
43C
330
1F
100
AcDbEntity
  8
0
  6
Continuous
100
AcDbBlockReference
  2
DC_GROUP_COM-2117  PSLJC2-00S304A_33
 10
0.0
 20
0.0
 30
0.0
  0
INSERT
  5
43D
330
1F
100
AcDbEntity
  8
0
  6
Continuous
100
AcDbBlockReference
  2
DC_GROUP_COM-2117  PSLJC2-00S304A_36
 10
0.0
 20
0.0
 30
0.0
  0
DIMENSION
  5
43E
330
1F
100
AcDbEntity
  8
0
  6
Continuous
370
    13
100
AcDbDimension
280
     0
  2
*D48
 10
18.17391304347826
 20
-35.90316855287013
 30
0.0
 11
18.17391304347826
 21
-55.78514337842652
 31
0.0
 70
   160
 71
     8
 42
-1.0
 73
     0
 74
     0
 75
     0
  3
dc_Rotated
100
AcDbAlignedDimension
 13
-26.76811594202898
 23
-75.90316855287014
 33
0.0
 14
-10.10869565217389
 24
-35.90316855287014
 34
0.0
 50
90.0
100
AcDbRotatedDimension
1001
ACAD
1000
DSTYLE
1002
{
1070
   144
1040
1.0
1070
   274
1070
     4
1070
    41
1040
3.000001907348633
1070
    79
1070
     2
1070
   343
1005
1C6
1070
   344
1005
1C6
1070
   176
1070
     2
1070
   177
1070
     2
1070
   178
1070
     4
1070
   271
1070
     2
1070
    44
1040
1.0
1070
    42
1040
1.0
1070
   147
1040
2.0
1070
   173
1070
     1
1070
    77
1070
     3
1070
    73
1070
     0
1070
   172
1070
     1
1070
    74
1070
     0
1070
   283
1070
     0
1070
   340
1005
1CE
1070
   140
1040
4.5
1070
   284
1070
     8
1070
   288
1070
     1
1070
    78
1070
     8
1070
    90
1070
     1
1002
}
  0
DIMENSION
  5
43F
330
1F
100
AcDbEntity
  8
0
  6
Continuous
370
    13
100
AcDbDimension
280
     0
  2
*D49
 10
-92.06521739130436
 20
-37.90316855287014
 30
0.0
 11
-92.06521739130436
 21
-74.08695652173914
 31
0.0
 70
   160
  1
21.8
 71
     8
 42
-1.0
 73
     0
 74
     0
 75
     0
  3
dc_Rotated
100
AcDbAlignedDimension
 13
-88.47273737550844
 23
-59.71736432246134
 33
0.0
 14
-84.76811594202897
 24
-37.90316855287014
 34
0.0
 50
90.0
100
AcDbRotatedDimension
1001
ACAD
1000
DSTYLE
1002
{
1070
   144
1040
1.0
1070
   274
1070
     4
1070
    41
1040
3.000001907348633
1070
    79
1070
     2
1070
   343
1005
1C6
1070
   344
1005
1C6
1070
   176
1070
     2
1070
   177
1070
     2
1070
   178
1070
     4
1070
   271
1070
     2
1070
    44
1040
1.0
1070
    42
1040
1.0
1070
   147
1040
1.0
1070
   173
1070
     1
1070
    77
1070
     3
1070
    73
1070
     0
1070
   172
1070
     1
1070
    74
1070
     0
1070
   283
1070
     0
1070
   340
1005
1CE
1070
   140
1040
4.5
1070
   284
1070
     8
1070
   288
1070
     1
1070
    78
1070
     8
1070
    90
1070
     1
1002
}
  0
DIMENSION
  5
440
330
1F
100
AcDbEntity
  8
0
  6
Continuous
370
    13
100
AcDbDimension
280
     0
  2
*D50
 10
-92.06521739130436
 20
-35.90316855287014
 30
0.0
 11
-92.06521739130436
 21
-30.88038855287014
 31
0.0
 70
   160
 71
     8
 42
-1.0
 73
     0
 74
     0
 75
     0
  3
dc_Rotated
100
AcDbAlignedDimension
 13
-84.76811594202897
 23
-37.90316855287014
 33
0.0
 14
-84.76811594202897
 24
-35.90316855287014
 34
0.0
 50
90.0
100
AcDbRotatedDimension
1001
ACAD
1000
DSTYLE
1002
{
1070
   144
1040
1.0
1070
   274
1070
     4
1070
    41
1040
2.5
1070
    79
1070
     2
1070
   343
1005
300
1070
   344
1005
300
1070
   176
1070
     2
1070
   177
1070
     2
1070
   178
1070
     4
1070
   271
1070
     2
1070
    44
1040
1.0
1070
    42
1040
1.0
1070
   147
1040
1.0
1070
   173
1070
     1
1070
    77
1070
     3
1070
    73
1070
     0
1070
   172
1070
     1
1070
    74
1070
     0
1070
   283
1070
     0
1070
   340
1005
1CE
1070
   140
1040
4.5
1070
   284
1070
     8
1070
   288
1070
     1
1070
    78
1070
     8
1070
    90
1070
     1
1002
}
  0
DIMENSION
  5
441
330
1F
100
AcDbEntity
  8
0
  6
Continuous
370
    13
100
AcDbDimension
280
     0
  2
*D51
 10
111.2144708647266
 20
-83.48180341466785
 30
0.0
 11
100.2144708647266
 21
-83.48180341466785
 31
0.0
 70
   160
 71
     8
 42
-1.0
 73
     0
 74
     0
 75
     0
  3
dc_Rotated
100
AcDbAlignedDimension
 13
89.21447086472662
 23
-48.4606116856084
 33
0.0
 14
111.2144708647266
 24
-76.90316855287013
 34
0.0
100
AcDbRotatedDimension
1001
ACAD
1000
DSTYLE
1002
{
1070
   144
1040
1.0
1070
   274
1070
     4
1070
    41
1040
3.000001907348633
1070
    79
1070
     2
1070
   343
1005
1C6
1070
   344
1005
1C6
1070
   176
1070
     2
1070
   177
1070
     2
1070
   178
1070
     4
1070
   271
1070
     2
1070
    44
1040
1.0
1070
    42
1040
1.0
1070
   147
1040
2.0
1070
   173
1070
     1
1070
    77
1070
     3
1070
    73
1070
     0
1070
   172
1070
     1
1070
    74
1070
     0
1070
   283
1070
     0
1070
   340
1005
1CE
1070
   140
1040
4.5
1070
   284
1070
     8
1070
   288
1070
     1
1070
    78
1070
     8
1070
    90
1070
     1
1002
}
  0
DIMENSION
  5
442
330
1F
100
AcDbEntity
  8
0
  6
Continuous
370
    13
100
AcDbDimension
280
     0
  2
*D52
 10
113.2144708647266
 20
-83.48180341466785
 30
0.0
 11
118.2372508647266
 21
-83.48180341466785
 31
0.0
 70
   160
 71
     8
 42
-1.0
 73
     0
 74
     0
 75
     0
  3
dc_Rotated
100
AcDbAlignedDimension
 13
111.2144708647266
 23
-76.90316855287013
 33
0.0
 14
113.2144708647266
 24
-76.90316855287013
 34
0.0
100
AcDbRotatedDimension
1001
ACAD
1000
DSTYLE
1002
{
1070
   144
1040
1.0
1070
   274
1070
     4
1070
    41
1040
3.000001907348633
1070
    79
1070
     2
1070
   343
1005
1C6
1070
   344
1005
1C6
1070
   176
1070
     2
1070
   177
1070
     2
1070
   178
1070
     4
1070
   271
1070
     2
1070
    44
1040
1.0
1070
    42
1040
1.0
1070
   147
1040
1.0
1070
   173
1070
     1
1070
    77
1070
     3
1070
    73
1070
     0
1070
   172
1070
     1
1070
    74
1070
     0
1070
   283
1070
     0
1070
   340
1005
1CE
1070
   140
1040
4.5
1070
   284
1070
     8
1070
   288
1070
     1
1070
    78
1070
     8
1070
    90
1070
     1
1002
}
  0
DIMENSION
  5
443
330
1F
100
AcDbEntity
  8
0
  6
Continuous
370
    13
100
AcDbDimension
280
     0
  2
*D53
 10
-23.76811594202898
 20
-90.49319140111979
 30
0.0
 11
-53.76811594202898
 21
-90.49319140111979
 31
0.0
 70
   160
 71
     8
 42
-1.0
 73
     0
 74
     0
 75
     0
  3
dc_Rotated
100
AcDbAlignedDimension
 13
-83.76811594202897
 23
-72.90316855287014
 33
0.0
 14
-23.76811594202898
 24
-72.90316855287014
 34
0.0
100
AcDbRotatedDimension
1001
ACAD
1000
DSTYLE
1002
{
1070
   144
1040
1.0
1070
   274
1070
     4
1070
    41
1040
3.000001907348633
1070
    79
1070
     2
1070
   343
1005
1C6
1070
   344
1005
1C6
1070
   176
1070
     2
1070
   177
1070
     2
1070
   178
1070
     4
1070
   271
1070
     2
1070
    44
1040
1.0
1070
    42
1040
1.0
1070
   147
1040
2.0
1070
   173
1070
     1
1070
    77
1070
     3
1070
    73
1070
     0
1070
   172
1070
     1
1070
    74
1070
     0
1070
   283
1070
     0
1070
   340
1005
1CE
1070
   140
1040
4.5
1070
   284
1070
     8
1070
   288
1070
     1
1070
    78
1070
     8
1070
    90
1070
     1
1002
}
  0
DIMENSION
  5
444
330
1F
100
AcDbEntity
  8
0
  6
Continuous
370
    13
100
AcDbDimension
280
     0
  2
*D54
 10
-49.63420802325343
 20
-83.10257828160643
 30
0.0
 11
-53.76811594202898
 21
-83.10257828160643
 31
0.0
 70
   160
 71
     8
 42
-1.0
 73
     0
 74
     0
 75
     0
  3
dc_Rotated
100
AcDbAlignedDimension
 13
-58.13420802325343
 23
-62.46736432246134
 33
0.0
 14
-49.63420802325343
 24
-62.46736432246134
 34
0.0
100
AcDbRotatedDimension
1001
ACAD
1000
DSTYLE
1002
{
1070
   144
1040
1.0
1070
   274
1070
     4
1070
    41
1040
3.000001907348633
1070
    79
1070
     2
1070
   343
1005
1C6
1070
   344
1005
1C6
1070
   176
1070
     2
1070
   177
1070
     2
1070
   178
1070
     4
1070
   271
1070
     2
1070
    44
1040
1.0
1070
    42
1040
1.0
1070
   147
1040
1.0
1070
   173
1070
     1
1070
    77
1070
     3
1070
    73
1070
     0
1070
   172
1070
     1
1070
    74
1070
     0
1070
   283
1070
     0
1070
   340
1005
1CE
1070
   140
1040
4.5
1070
   284
1070
     8
1070
   288
1070
     1
1070
    78
1070
     8
1070
    90
1070
     1
1002
}
  0
DIMENSION
  5
445
330
1F
100
AcDbEntity
  8
0
  6
Continuous
370
    13
100
AcDbDimension
280
     0
  2
*D55
 10
-100.195652173913
 20
-59.71736432246134
 30
0.0
 11
-100.195652173913
 21
-70.95108695652173
 31
0.0
 70
   160
 71
     8
 42
-1.0
 73
     0
 74
     0
 75
     0
  3
dc_Rotated
100
AcDbAlignedDimension
 13
-54.88420802325343
 23
-65.71736432246134
 33
0.0
 14
-89.47273737550844
 24
-59.71736432246134
 34
0.0
 50
90.0
100
AcDbRotatedDimension
1001
ACAD
1000
DSTYLE
1002
{
1070
   144
1040
1.0
1070
   274
1070
     4
1070
    41
1040
3.000001907348633
1070
    79
1070
     2
1070
   343
1005
1C6
1070
   344
1005
1C6
1070
   176
1070
     2
1070
   177
1070
     2
1070
   178
1070
     4
1070
   271
1070
     2
1070
    44
1040
1.0
1070
    42
1040
1.0
1070
   147
1040
1.0
1070
   173
1070
     1
1070
    77
1070
     3
1070
    73
1070
     0
1070
   172
1070
     1
1070
    74
1070
     0
1070
   283
1070
     0
1070
   340
1005
1CE
1070
   140
1040
4.5
1070
   284
1070
     8
1070
   288
1070
     1
1070
    78
1070
     8
1070
    90
1070
     1
1002
}
  0
DIMENSION
  5
446
330
1F
100
AcDbEntity
  8
0
  6
Continuous
370
    13
100
AcDbDimension
280
     0
  2
*D56
 10
-100.195652173913
 20
-53.71736432246134
 30
0.0
 11
-100.195652173913
 21
-46.94021739130435
 31
0.0
 70
   160
 71
     8
 42
-1.0
 73
     0
 74
     0
 75
     0
  3
dc_Rotated
100
AcDbAlignedDimension
 13
-89.47273737550844
 23
-59.71736432246134
 33
0.0
 14
-54.88420802325343
 24
-53.71736432246134
 34
0.0
 50
90.0
100
AcDbRotatedDimension
1001
ACAD
1000
DSTYLE
1002
{
1070
   144
1040
1.0
1070
   274
1070
     4
1070
    41
1040
2.5
1070
    79
1070
     2
1070
   343
1005
300
1070
   344
1005
300
1070
   176
1070
     2
1070
   177
1070
     2
1070
   178
1070
     4
1070
   271
1070
     2
1070
    44
1040
1.0
1070
    42
1040
1.0
1070
   147
1040
1.0
1070
   173
1070
     1
1070
    77
1070
     3
1070
    73
1070
     0
1070
   172
1070
     1
1070
    74
1070
     0
1070
   283
1070
     0
1070
   340
1005
1CE
1070
   140
1040
4.5
1070
   284
1070
     8
1070
   288
1070
     1
1070
    78
1070
     8
1070
    90
1070
     1
1002
}
  0
INSERT
  5
447
330
1F
100
AcDbEntity
  8
0
  6
Continuous
100
AcDbBlockReference
  2
DC_GROUP_COM-2117  PSLJC2-00S304A_39
 10
0.0
 20
0.0
 30
0.0
  0
INSERT
  5
448
330
1F
100
AcDbEntity
  8
0
  6
Continuous
100
AcDbBlockReference
  2
DC_GROUP_COM-2117  PSLJC2-00S304A_42
 10
0.0
 20
0.0
 30
0.0
  0
INSERT
  5
449
330
1F
100
AcDbEntity
  8
0
  6
Continuous
100
AcDbBlockReference
  2
DC_GROUP_COM-2117  PSLJC2-00S304A_43
 10
0.0
 20
0.0
 30
0.0
  0
DIMENSION
  5
44A
330
1F
100
AcDbEntity
  8
0
  6
Continuous
370
    13
100
AcDbDimension
280
     0
  2
*D63
 10
-32.76811594202894
 20
-137.8761837284855
 30
0.0
 11
-53.76811594202894
 21
-137.8761837284855
 31
0.0
 70
   160
 71
     8
 42
-1.0
 73
     0
 74
     0
 75
     0
  3
dc_Rotated
100
AcDbAlignedDimension
 13
-74.76811594202894
 23
-117.7240059269955
 33
0.0
 14
-32.76811594202894
 24
-117.7240059269955
 34
0.0
100
AcDbRotatedDimension
1001
ACAD
1000
DSTYLE
1002
{
1070
   144
1040
1.0
1070
   274
1070
     4
1070
    41
1040
3.000001907348633
1070
    79
1070
     2
1070
   343
1005
1C6
1070
   344
1005
1C6
1070
   176
1070
     2
1070
   177
1070
     2
1070
   178
1070
     4
1070
   271
1070
     2
1070
    44
1040
1.0
1070
    42
1040
1.0
1070
   147
1040
1.0
1070
   173
1070
     1
1070
    77
1070
     3
1070
    73
1070
     0
1070
   172
1070
     1
1070
    74
1070
     0
1070
   283
1070
     0
1070
   340
1005
1CE
1070
   140
1040
4.5
1070
   284
1070
     8
1070
   288
1070
     1
1070
    78
1070
     8
1070
    90
1070
     1
1002
}
  0
INSERT
  5
44B
330
1F
100
AcDbEntity
  8
ZUWAKU
  6
Continuous
100
AcDbBlockReference
  2
DC_GROUP_COM-2117  PSLJC2-00S304A_12
 10
0.0
 20
0.0
 30
0.0
  0
INSERT
  5
44C
330
1F
100
AcDbEntity
  8
ZUWAKU
  6
Continuous
100
AcDbBlockReference
  2
DC_GROUP_COM-2117  PSLJC2-00S304A_13
 10
0.0
 20
0.0
 30
0.0
  0
INSERT
  5
44D
330
1F
100
AcDbEntity
  8
ZUWAKU
  6
Continuous
100
AcDbBlockReference
  2
DC_GROUP_COM-2117  PSLJC2-00S304A_14
 10
0.0
 20
0.0
 30
0.0
  0
INSERT
  5
44E
330
1F
100
AcDbEntity
  8
ZUWAKU
  6
Continuous
100
AcDbBlockReference
  2
DC_GROUP_COM-2117  PSLJC2-00S304A_15
 10
0.0
 20
0.0
 30
0.0
  0
INSERT
  5
44F
330
1F
100
AcDbEntity
  8
ZUWAKU
  6
Continuous
100
AcDbBlockReference
  2
DC_GROUP_COM-2117  PSLJC2-00S304A_16
 10
0.0
 20
0.0
 30
0.0
  0
VIEWPORT
  5
B2
330
1B
100
AcDbEntity
 67
     1
  8
0
100
AcDbViewport
 10
-20.25
 20
-65.5
 30
0.0
 40
1381.5
 41
1284.0
 68
     1
 69
     1
 12
-20.25
 22
-65.5
 13
0.0
 23
0.0
 14
0.5
 24
0.5
 15
0.0
 25
0.0
 16
0.0
 26
0.0
 36
1.0
 17
0.0
 27
0.0
 37
0.0
 42
50.0
 43
0.0
 44
0.0
 45
1284.0
 50
0.0
 51
0.0
 72
   100
 90
   557152
  1

281
     0
 71
     1
 74
     0
110
0.0
120
0.0
130
0.0
111
1.0
121
0.0
131
0.0
112
0.0
122
1.0
132
0.0
 79
     0
146
0.0
170
     0
 61
     5
348
2F
292
     1
282
     1
141
0.0
142
0.0
 63
   256
  0
ENDSEC
  0
SECTION
  2
OBJECTS
  0
DICTIONARY
  5
C
330
0
100
AcDbDictionary
281
     1
  3
ACAD_DETAILVIEWSTYLE
350
487
  3
ACAD_GROUP
350
D
  3
ACAD_LAYOUT
350
1A
  3
ACAD_MATERIAL
350
43
  3
ACAD_MLEADERSTYLE
350
6B
  3
ACAD_MLINESTYLE
350
17
  3
ACAD_PLOTSETTINGS
350
19
  3
ACAD_PLOTSTYLENAME
350
E
  3
ACAD_SCALELIST
350
47
  3
ACAD_SECTIONVIEWSTYLE
350
488
  3
ACAD_TABLESTYLE
350
69
  3
ACAD_VISUALSTYLE
350
2A
  3
ACDB_RECOMPOSE_DATA
350
484
  3
AcDbVariableDictionary
350
450
  0
SUN
  5
6D
330
29
100
AcDbSun
 90
        1
290
     0
 63
     7
421
 16777215
 40
1.0
291
     1
 91
  2455826
 92
 54000000
292
     0
 70
     2
 71
   256
280
     1
  0
DICTIONARY
  5
487
102
{ACAD_REACTORS
330
C
102
}
330
C
100
AcDbDictionary
281
     1
  0
DICTIONARY
  5
D
102
{ACAD_REACTORS
330
C
102
}
330
C
100
AcDbDictionary
281
     1
  0
DICTIONARY
  5
1A
102
{ACAD_REACTORS
330
C
102
}
330
C
100
AcDbDictionary
281
     1
  3
Layout1
350
1E
  3
Layout2
350
26
  3
Model
350
22
  0
DICTIONARY
  5
43
102
{ACAD_REACTORS
330
C
102
}
330
C
100
AcDbDictionary
281
     1
  3
ByBlock
350
45
  3
ByLayer
350
44
  3
Global
350
46
  0
DICTIONARY
  5
6B
102
{ACAD_REACTORS
330
C
102
}
330
C
100
AcDbDictionary
281
     1
  3
Standard
350
6C
  0
DICTIONARY
  5
17
102
{ACAD_REACTORS
330
C
102
}
330
C
100
AcDbDictionary
281
     1
  3
Standard
350
18
  0
DICTIONARY
  5
19
102
{ACAD_REACTORS
330
C
102
}
330
C
100
AcDbDictionary
281
     1
  0
ACDBDICTIONARYWDFLT
  5
E
102
{ACAD_REACTORS
330
C
102
}
330
C
100
AcDbDictionary
281
     1
  3
Normal
350
F
100
AcDbDictionaryWithDefault
340
F
  0
DICTIONARY
  5
47
102
{ACAD_REACTORS
330
C
102
}
330
C
100
AcDbDictionary
281
     1
  3
A0
350
48
  3
A1
350
49
  3
A2
350
4A
  3
A3
350
4B
  3
A4
350
4C
  3
A5
350
4D
  3
A6
350
4E
  3
A7
350
4F
  3
A8
350
50
  3
A9
350
51
  3
B0
350
52
  3
B1
350
53
  3
B2
350
54
  3
B3
350
55
  3
B4
350
56
  3
B5
350
57
  3
B6
350
58
  3
B7
350
59
  3
B8
350
5A
  3
B9
350
5B
  3
C0
350
5C
  3
C1
350
5D
  3
C2
350
5E
  3
C3
350
5F
  3
C4
350
60
  3
C5
350
61
  3
C6
350
62
  3
C7
350
63
  3
C8
350
64
  3
C9
350
65
  3
D0
350
66
  3
D1
350
67
  3
D2
350
68
  0
DICTIONARY
  5
488
102
{ACAD_REACTORS
330
C
102
}
330
C
100
AcDbDictionary
281
     1
  0
DICTIONARY
  5
69
102
{ACAD_REACTORS
330
C
102
}
330
C
100
AcDbDictionary
281
     1
  3
Standard
350
6A
  0
DICTIONARY
  5
2A
102
{ACAD_REACTORS
330
C
102
}
330
C
100
AcDbDictionary
281
     1
  3
2dWireframe
350
2F
  3
Basic
350
32
  3
Brighten
350
36
  3
ColorChange
350
3A
  3
Conceptual
350
34
  3
Dim
350
35
  3
EdgeColorOff
350
3D
  3
Facepattern
350
39
  3
Flat
350
2B
  3
FlatWithEdges
350
2C
  3
Gouraud
350
2D
  3
GouraudWithEdges
350
2E
  3
Hidden
350
31
  3
JitterOff
350
3B
  3
Linepattern
350
38
  3
OverhangOff
350
3C
  3
Realistic
350
33
  3
Shaded
350
42
  3
Shaded with edges
350
41
  3
Shades of Gray
350
3E
  3
Sketchy
350
3F
  3
Thicken
350
37
  3
Wireframe
350
30
  3
X-Ray
350
40
  0
XRECORD
  5
484
102
{ACAD_REACTORS
330
C
102
}
330
C
100
AcDbXrecord
280
     1
 90
        1
330
6A
  0
DICTIONARY
  5
450
102
{ACAD_REACTORS
330
C
102
}
330
C
100
AcDbDictionary
281
     1
  3
CANNOSCALE
350
451
  3
CMLEADERSTYLE
350
486
  3
CTABLESTYLE
350
485
  0
LAYOUT
  5
1E
102
{ACAD_REACTORS
330
1A
102
}
330
1A
100
AcDbPlotSettings
  1

  2
none_device
  4

  6

 40
0.0
 41
0.0
 42
0.0
 43
0.0
 44
0.0
 45
0.0
 46
0.0
 47
0.0
 48
0.0
 49
0.0
140
0.0
141
0.0
142
1.0
143
1.0
 70
   688
 72
     0
 73
     0
 74
     5
  7

 75
    16
 76
     0
 77
     2
 78
   300
147
1.0
148
0.0
149
0.0
100
AcDbLayout
  1
Layout1
 70
     0
 71
     1
 10
0.0
 20
0.0
 11
12.0
 21
9.0
 12
0.0
 22
0.0
 32
0.0
 14
1.000000000000000E+20
 24
1.000000000000000E+20
 34
1.000000000000000E+20
 15
-1.000000000000000E+20
 25
-1.000000000000000E+20
 35
-1.000000000000000E+20
146
0.0
 13
0.0
 23
0.0
 33
0.0
 16
1.0
 26
0.0
 36
0.0
 17
0.0
 27
1.0
 37
0.0
 76
     0
330
1B
331
B2
  0
LAYOUT
  5
26
102
{ACAD_REACTORS
330
1A
102
}
330
1A
100
AcDbPlotSettings
  1

  2
none_device
  4

  6

 40
0.0
 41
0.0
 42
0.0
 43
0.0
 44
0.0
 45
0.0
 46
0.0
 47
0.0
 48
0.0
 49
0.0
140
0.0
141
0.0
142
1.0
143
1.0
 70
   688
 72
     0
 73
     0
 74
     5
  7

 75
    16
 76
     0
 77
     2
 78
   300
147
1.0
148
0.0
149
0.0
100
AcDbLayout
  1
Layout2
 70
     1
 71
     2
 10
0.0
 20
0.0
 11
0.0
 21
0.0
 12
0.0
 22
0.0
 32
0.0
 14
0.0
 24
0.0
 34
0.0
 15
0.0
 25
0.0
 35
0.0
146
0.0
 13
0.0
 23
0.0
 33
0.0
 16
1.0
 26
0.0
 36
0.0
 17
0.0
 27
1.0
 37
0.0
 76
     0
330
23
  0
LAYOUT
  5
22
102
{ACAD_REACTORS
330
1A
102
}
330
1A
100
AcDbPlotSettings
  1

  2
DWG to PDF.pc3
  4
ISO_A3_(297.00_x_420.00_MM)
  6

 40
5.0
 41
17.0
 42
5.0
 43
17.0
 44
297.0
 45
420.0
 46
0.0
 47
0.0
 48
0.0
 49
0.0
140
0.0
141
0.0
142
1.0
143
1.0
 70
  1712
 72
     1
 73
     1
 74
     1
  7

 75
    16
 76
     0
 77
     2
 78
   300
147
1.0
148
0.0
149
0.0
100
AcDbLayout
  1
Model
 70
     1
 71
     0
 10
-210.0
 20
-148.5
 11
210.0
 21
148.5
 12
0.0
 22
0.0
 32
0.0
 14
-711.0
 24
-707.5
 34
0.0
 15
670.5
 25
576.5
 35
0.0
146
0.0
 13
0.0
 23
0.0
 33
0.0
 16
1.0
 26
0.0
 36
0.0
 17
0.0
 27
1.0
 37
0.0
 76
     0
330
1F
331
29
  0
MATERIAL
  5
45
102
{ACAD_REACTORS
330
43
102
}
330
43
100
AcDbMaterial
  1
ByBlock
 72
     1
 94
      127
  0
MATERIAL
  5
44
102
{ACAD_REACTORS
330
43
102
}
330
43
100
AcDbMaterial
  1
ByLayer
 72
     1
 94
      127
  0
MATERIAL
  5
46
102
{ACAD_REACTORS
330
43
102
}
330
43
100
AcDbMaterial
  1
Global
 72
     1
 94
      127
  0
MLEADERSTYLE
  5
6C
102
{ACAD_REACTORS
330
6B
102
}
330
6B
100
AcDbMLeaderStyle
179
     2
170
     2
171
     1
172
     0
 90
        2
 40
0.0
 41
0.0
173
     1
 91
-1056964608
340
14
 92
       -2
290
     1
 42
0.09
291
     1
 43
0.36
  3
Standard
341
0
 44
0.18
300

342
11
174
     1
178
     6
175
     1
176
     0
 93
-1056964608
 45
0.18
292
     0
297
     0
 46
0.18
343
0
 94
-1056964608
 47
1.0
 49
1.0
140
1.0
293
     1
141
0.0
294
     1
177
     0
142
1.0
295
     0
296
     0
143
0.125
271
     0
272
     9
273
     9
  0
MLINESTYLE
  5
18
102
{ACAD_REACTORS
330
17
102
}
330
17
100
AcDbMlineStyle
  2
Standard
 70
     0
  3

 62
   256
 51
90.0
 52
90.0
 71
     2
 49
0.5
 62
   256
  6
BYLAYER
 49
-0.5
 62
   256
  6
BYLAYER
  0
ACDBPLACEHOLDER
  5
F
102
{ACAD_REACTORS
330
E
102
}
330
E
  0
SCALE
  5
48
102
{ACAD_REACTORS
330
47
102
}
330
47
100
AcDbScale
 70
     0
300
1:1
140
1.0
141
1.0
290
     1
  0
SCALE
  5
49
102
{ACAD_REACTORS
330
47
102
}
330
47
100
AcDbScale
 70
     0
300
1:2
140
1.0
141
2.0
290
     0
  0
SCALE
  5
4A
102
{ACAD_REACTORS
330
47
102
}
330
47
100
AcDbScale
 70
     0
300
1:4
140
1.0
141
4.0
290
     0
  0
SCALE
  5
4B
102
{ACAD_REACTORS
330
47
102
}
330
47
100
AcDbScale
 70
     0
300
1:5
140
1.0
141
5.0
290
     0
  0
SCALE
  5
4C
102
{ACAD_REACTORS
330
47
102
}
330
47
100
AcDbScale
 70
     0
300
1:8
140
1.0
141
8.0
290
     0
  0
SCALE
  5
4D
102
{ACAD_REACTORS
330
47
102
}
330
47
100
AcDbScale
 70
     0
300
1:10
140
1.0
141
10.0
290
     0
  0
SCALE
  5
4E
102
{ACAD_REACTORS
330
47
102
}
330
47
100
AcDbScale
 70
     0
300
1:16
140
1.0
141
16.0
290
     0
  0
SCALE
  5
4F
102
{ACAD_REACTORS
330
47
102
}
330
47
100
AcDbScale
 70
     0
300
1:20
140
1.0
141
20.0
290
     0
  0
SCALE
  5
50
102
{ACAD_REACTORS
330
47
102
}
330
47
100
AcDbScale
 70
     0
300
1:30
140
1.0
141
30.0
290
     0
  0
SCALE
  5
51
102
{ACAD_REACTORS
330
47
102
}
330
47
100
AcDbScale
 70
     0
300
1:40
140
1.0
141
40.0
290
     0
  0
SCALE
  5
52
102
{ACAD_REACTORS
330
47
102
}
330
47
100
AcDbScale
 70
     0
300
1:50
140
1.0
141
50.0
290
     0
  0
SCALE
  5
53
102
{ACAD_REACTORS
330
47
102
}
330
47
100
AcDbScale
 70
     0
300
1:100
140
1.0
141
100.0
290
     0
  0
SCALE
  5
54
102
{ACAD_REACTORS
330
47
102
}
330
47
100
AcDbScale
 70
     0
300
2:1
140
2.0
141
1.0
290
     0
  0
SCALE
  5
55
102
{ACAD_REACTORS
330
47
102
}
330
47
100
AcDbScale
 70
     0
300
4:1
140
4.0
141
1.0
290
     0
  0
SCALE
  5
56
102
{ACAD_REACTORS
330
47
102
}
330
47
100
AcDbScale
 70
     0
300
8:1
140
8.0
141
1.0
290
     0
  0
SCALE
  5
57
102
{ACAD_REACTORS
330
47
102
}
330
47
100
AcDbScale
 70
     0
300
10:1
140
10.0
141
1.0
290
     0
  0
SCALE
  5
58
102
{ACAD_REACTORS
330
47
102
}
330
47
100
AcDbScale
 70
     0
300
100:1
140
100.0
141
1.0
290
     0
  0
SCALE
  5
59
102
{ACAD_REACTORS
330
47
102
}
330
47
100
AcDbScale
 70
     0
300
1/128" = 1'-0"
140
0.0078125
141
12.0
290
     0
  0
SCALE
  5
5A
102
{ACAD_REACTORS
330
47
102
}
330
47
100
AcDbScale
 70
     0
300
1/64" = 1'-0"
140
0.015625
141
12.0
290
     0
  0
SCALE
  5
5B
102
{ACAD_REACTORS
330
47
102
}
330
47
100
AcDbScale
 70
     0
300
1/32" = 1'-0"
140
0.03125
141
12.0
290
     0
  0
SCALE
  5
5C
102
{ACAD_REACTORS
330
47
102
}
330
47
100
AcDbScale
 70
     0
300
1/16" = 1'-0"
140
0.0625
141
12.0
290
     0
  0
SCALE
  5
5D
102
{ACAD_REACTORS
330
47
102
}
330
47
100
AcDbScale
 70
     0
300
3/32" = 1'-0"
140
0.09375
141
12.0
290
     0
  0
SCALE
  5
5E
102
{ACAD_REACTORS
330
47
102
}
330
47
100
AcDbScale
 70
     0
300
1/8" = 1'-0"
140
0.125
141
12.0
290
     0
  0
SCALE
  5
5F
102
{ACAD_REACTORS
330
47
102
}
330
47
100
AcDbScale
 70
     0
300
3/16" = 1'-0"
140
0.1875
141
12.0
290
     0
  0
SCALE
  5
60
102
{ACAD_REACTORS
330
47
102
}
330
47
100
AcDbScale
 70
     0
300
1/4" = 1'-0"
140
0.25
141
12.0
290
     0
  0
SCALE
  5
61
102
{ACAD_REACTORS
330
47
102
}
330
47
100
AcDbScale
 70
     0
300
3/8" = 1'-0"
140
0.375
141
12.0
290
     0
  0
SCALE
  5
62
102
{ACAD_REACTORS
330
47
102
}
330
47
100
AcDbScale
 70
     0
300
1/2" = 1'-0"
140
0.5
141
12.0
290
     0
  0
SCALE
  5
63
102
{ACAD_REACTORS
330
47
102
}
330
47
100
AcDbScale
 70
     0
300
3/4" = 1'-0"
140
0.75
141
12.0
290
     0
  0
SCALE
  5
64
102
{ACAD_REACTORS
330
47
102
}
330
47
100
AcDbScale
 70
     0
300
1" = 1'-0"
140
1.0
141
12.0
290
     0
  0
SCALE
  5
65
102
{ACAD_REACTORS
330
47
102
}
330
47
100
AcDbScale
 70
     0
300
1-1/2" = 1'-0"
140
1.5
141
12.0
290
     0
  0
SCALE
  5
66
102
{ACAD_REACTORS
330
47
102
}
330
47
100
AcDbScale
 70
     0
300
3" = 1'-0"
140
3.0
141
12.0
290
     0
  0
SCALE
  5
67
102
{ACAD_REACTORS
330
47
102
}
330
47
100
AcDbScale
 70
     0
300
6" = 1'-0"
140
6.0
141
12.0
290
     0
  0
SCALE
  5
68
102
{ACAD_REACTORS
330
47
102
}
330
47
100
AcDbScale
 70
     0
300
1'-0" = 1'-0"
140
12.0
141
12.0
290
     0
  0
TABLESTYLE
  5
6A
102
{ACAD_REACTORS
330
69
102
}
102
{ACAD_XDICTIONARY
360
482
102
}
330
69
100
AcDbTableStyle
  3
Standard
 70
     0
 71
     0
 40
0.06
 41
0.06
280
     0
281
     0
  7
Standard
140
0.18
170
     2
 62
     0
 63
   257
283
     0
 90
        4
 91
        0
  1

274
    -2
284
     1
 64
     0
275
    -2
285
     1
 65
     0
276
    -2
286
     1
 66
     0
277
    -2
287
     1
 67
     0
278
    -2
288
     1
 68
     0
279
    -2
289
     1
 69
     0
  7
Standard
140
0.25
170
     5
 62
     0
 63
   257
283
     0
 90
        4
 91
        0
  1

274
    -2
284
     1
 64
     0
275
    -2
285
     1
 65
     0
276
    -2
286
     1
 66
     0
277
    -2
287
     1
 67
     0
278
    -2
288
     1
 68
     0
279
    -2
289
     1
 69
     0
  7
Standard
140
0.18
170
     5
 62
     0
 63
   257
283
     0
 90
        4
 91
        0
  1

274
    -2
284
     1
 64
     0
275
    -2
285
     1
 65
     0
276
    -2
286
     1
 66
     0
277
    -2
287
     1
 67
     0
278
    -2
288
     1
 68
     0
279
    -2
289
     1
 69
     0
  0
VISUALSTYLE
  5
2F
102
{ACAD_REACTORS
330
2A
102
}
102
{ACAD_XDICTIONARY
360
45A
102
}
330
2A
100
AcDbVisualStyle
  2
2dWireframe
 70
     4
177
     2
291
     0
 71
     0
176
     1
 72
     2
176
     1
 73
     0
176
     1
 90
        0
176
     1
 40
0.6
176
     1
 41
30.0
176
     1
 62
     5
 63
     7
421
 16777215
176
     1
 74
     1
176
     1
 91
        4
176
     1
 64
     7
176
     1
 65
   257
176
     1
 75
     1
176
     1
175
     1
176
     1
 42
1.0
176
     1
 92
        0
176
     1
 66
   257
176
     1
 43
1.0
176
     1
 76
     1
176
     1
 77
     6
176
     1
 78
     2
176
     1
 67
     7
176
     1
 79
     5
176
     1
170
     0
176
     1
171
     0
176
     1
290
     0
176
     1
 93
        1
176
     1
 44
0.0
176
     1
173
     0
176
     1
  0
VISUALSTYLE
  5
32
102
{ACAD_REACTORS
330
2A
102
}
102
{ACAD_XDICTIONARY
360
460
102
}
330
2A
100
AcDbVisualStyle
  2
Basic
 70
     7
177
     2
291
     1
 71
     1
176
     1
 72
     0
176
     1
 73
     1
176
     1
 90
        0
176
     1
 40
0.6
176
     1
 41
30.0
176
     1
 62
     5
 63
     7
421
 16777215
176
     1
 74
     0
176
     1
 91
        4
176
     1
 64
     7
176
     1
 65
   257
176
     1
 75
     1
176
     1
175
     1
176
     1
 42
1.0
176
     1
 92
        8
176
     1
 66
     7
176
     1
 43
1.0
176
     1
 76
     1
176
     1
 77
     6
176
     1
 78
     2
176
     1
 67
     7
176
     1
 79
     5
176
     1
170
     0
176
     1
171
     0
176
     1
290
     0
176
     1
 93
        1
176
     1
 44
0.0
176
     1
173
     0
176
     1
  0
VISUALSTYLE
  5
36
102
{ACAD_REACTORS
330
2A
102
}
102
{ACAD_XDICTIONARY
360
468
102
}
330
2A
100
AcDbVisualStyle
  2
Brighten
 70
    12
177
     2
291
     1
 71
     2
176
     1
 72
     2
176
     1
 73
     0
176
     1
 90
        0
176
     1
 40
0.6
176
     1
 41
30.0
176
     1
 62
     5
 63
     7
421
 16777215
176
     1
 74
     1
176
     1
 91
        4
176
     1
 64
     7
176
     1
 65
   257
176
     1
 75
     1
176
     1
175
     1
176
     1
 42
1.0
176
     1
 92
        8
176
     1
 66
     7
176
     1
 43
1.0
176
     1
 76
     1
176
     1
 77
     6
176
     1
 78
     2
176
     1
 67
     7
176
     1
 79
     5
176
     1
170
     0
176
     1
171
     0
176
     1
290
     0
176
     1
 93
        1
176
     1
 44
50.0
176
     1
173
     0
176
     1
  0
VISUALSTYLE
  5
3A
102
{ACAD_REACTORS
330
2A
102
}
102
{ACAD_XDICTIONARY
360
470
102
}
330
2A
100
AcDbVisualStyle
  2
ColorChange
 70
    16
177
     2
291
     1
 71
     2
176
     1
 72
     2
176
     1
 73
     3
176
     1
 90
        0
176
     1
 40
0.6
176
     1
 41
30.0
176
     1
 62
     5
 63
     8
421
  8421504
176
     1
 74
     1
176
     1
 91
        4
176
     1
 64
     7
176
     1
 65
   257
176
     1
 75
     1
176
     1
175
     1
176
     1
 42
1.0
176
     1
 92
        8
176
     1
 66
     8
424
  8421504
176
     1
 43
1.0
176
     1
 76
     1
176
     1
 77
     6
176
     1
 78
     2
176
     1
 67
     7
176
     1
 79
     5
176
     1
170
     0
176
     1
171
     0
176
     1
290
     0
176
     1
 93
        1
176
     1
 44
0.0
176
     1
173
     0
176
     1
  0
VISUALSTYLE
  5
34
102
{ACAD_REACTORS
330
2A
102
}
102
{ACAD_XDICTIONARY
360
464
102
}
330
2A
100
AcDbVisualStyle
  2
Conceptual
 70
     9
177
     2
291
     0
 71
     3
176
     1
 72
     2
176
     1
 73
     0
176
     1
 90
        0
176
     1
 40
0.6
176
     1
 41
30.0
176
     1
 62
     5
 63
     7
421
 16777215
176
     1
 74
     2
176
     1
 91
        2
176
     1
 64
     7
176
     1
 65
   257
176
     1
 75
     1
176
     1
175
     1
176
     1
 42
179.0
176
     1
 92
        8
176
     1
 66
     7
176
     1
 43
1.0
176
     1
 76
     1
176
     1
 77
     6
176
     1
 78
     2
176
     1
 67
     7
176
     1
 79
     3
176
     1
170
     0
176
     1
171
     0
176
     1
290
     0
176
     1
 93
        1
176
     1
 44
0.0
176
     1
173
     0
176
     1
  0
VISUALSTYLE
  5
35
102
{ACAD_REACTORS
330
2A
102
}
102
{ACAD_XDICTIONARY
360
466
102
}
330
2A
100
AcDbVisualStyle
  2
Dim
 70
    11
177
     2
291
     1
 71
     2
176
     1
 72
     2
176
     1
 73
     0
176
     1
 90
        0
176
     1
 40
0.6
176
     1
 41
30.0
176
     1
 62
     5
 63
     7
421
 16777215
176
     1
 74
     1
176
     1
 91
        4
176
     1
 64
     7
176
     1
 65
   257
176
     1
 75
     1
176
     1
175
     1
176
     1
 42
1.0
176
     1
 92
        8
176
     1
 66
     7
176
     1
 43
1.0
176
     1
 76
     1
176
     1
 77
     6
176
     1
 78
     2
176
     1
 67
     7
176
     1
 79
     5
176
     1
170
     0
176
     1
171
     0
176
     1
290
     0
176
     1
 93
        1
176
     1
 44
-50.0
176
     1
173
     0
176
     1
  0
VISUALSTYLE
  5
3D
102
{ACAD_REACTORS
330
2A
102
}
102
{ACAD_XDICTIONARY
360
476
102
}
330
2A
100
AcDbVisualStyle
  2
EdgeColorOff
 70
    22
177
     2
291
     1
 71
     2
176
     0
 72
     2
176
     0
 73
     0
176
     0
 90
        0
176
     0
 40
0.6
176
     0
 41
30.0
176
     0
 62
     5
 63
     7
421
 16777215
176
     0
 74
     1
176
     0
 91
        4
176
     0
 64
     7
176
     0
 65
   257
176
     0
 75
     1
176
     0
175
     1
176
     0
 42
1.0
176
     0
 92
        8
176
     2
 66
     7
176
     0
 43
1.0
176
     0
 76
     1
176
     0
 77
     6
176
     0
 78
     2
176
     0
 67
     7
176
     0
 79
     5
176
     0
170
     0
176
     0
171
     0
176
     0
290
     0
176
     0
 93
        1
176
     0
 44
0.0
176
     0
173
     0
176
     0
  0
VISUALSTYLE
  5
39
102
{ACAD_REACTORS
330
2A
102
}
102
{ACAD_XDICTIONARY
360
46E
102
}
330
2A
100
AcDbVisualStyle
  2
Facepattern
 70
    15
177
     2
291
     1
 71
     2
176
     1
 72
     2
176
     1
 73
     0
176
     1
 90
        0
176
     1
 40
0.6
176
     1
 41
30.0
176
     1
 62
     5
 63
     7
421
 16777215
176
     1
 74
     1
176
     1
 91
        4
176
     1
 64
     7
176
     1
 65
   257
176
     1
 75
     1
176
     1
175
     1
176
     1
 42
1.0
176
     1
 92
        8
176
     1
 66
     7
176
     1
 43
1.0
176
     1
 76
     1
176
     1
 77
     6
176
     1
 78
     2
176
     1
 67
     7
176
     1
 79
     5
176
     1
170
     0
176
     1
171
     0
176
     1
290
     0
176
     1
 93
        1
176
     1
 44
0.0
176
     1
173
     0
176
     1
  0
VISUALSTYLE
  5
2B
102
{ACAD_REACTORS
330
2A
102
}
102
{ACAD_XDICTIONARY
360
452
102
}
330
2A
100
AcDbVisualStyle
  2
Flat
 70
     0
177
     2
291
     1
 71
     2
176
     1
 72
     1
176
     1
 73
     1
176
     1
 90
        2
176
     1
 40
0.6
176
     1
 41
30.0
176
     1
 62
     5
 63
     7
421
 16777215
176
     1
 74
     0
176
     1
 91
        0
176
     1
 64
     7
176
     1
 65
   257
176
     1
 75
     1
176
     1
175
     1
176
     1
 42
1.0
176
     1
 92
        8
176
     1
 66
     7
176
     1
 43
1.0
176
     1
 76
     1
176
     1
 77
     6
176
     1
 78
     2
176
     1
 67
     7
176
     1
 79
     5
176
     1
170
     0
176
     1
171
     0
176
     1
290
     0
176
     1
 93
       13
176
     1
 44
0.0
176
     1
173
     0
176
     1
  0
VISUALSTYLE
  5
2C
102
{ACAD_REACTORS
330
2A
102
}
102
{ACAD_XDICTIONARY
360
454
102
}
330
2A
100
AcDbVisualStyle
  2
FlatWithEdges
 70
     1
177
     2
291
     1
 71
     2
176
     1
 72
     1
176
     1
 73
     1
176
     1
 90
        2
176
     1
 40
0.6
176
     1
 41
30.0
176
     1
 62
     5
 63
     7
421
 16777215
176
     1
 74
     1
176
     1
 91
        0
176
     1
 64
     7
176
     1
 65
   257
176
     1
 75
     1
176
     1
175
     1
176
     1
 42
1.0
176
     1
 92
        0
176
     1
 66
   257
176
     1
 43
1.0
176
     1
 76
     1
176
     1
 77
     6
176
     1
 78
     2
176
     1
 67
     7
176
     1
 79
     5
176
     1
170
     0
176
     1
171
     0
176
     1
290
     0
176
     1
 93
       13
176
     1
 44
0.0
176
     1
173
     0
176
     1
  0
VISUALSTYLE
  5
2D
102
{ACAD_REACTORS
330
2A
102
}
102
{ACAD_XDICTIONARY
360
456
102
}
330
2A
100
AcDbVisualStyle
  2
Gouraud
 70
     2
177
     2
291
     1
 71
     2
176
     1
 72
     2
176
     1
 73
     1
176
     1
 90
        2
176
     1
 40
0.6
176
     1
 41
30.0
176
     1
 62
     5
 63
     7
421
 16777215
176
     1
 74
     0
176
     1
 91
        0
176
     1
 64
     7
176
     1
 65
   257
176
     1
 75
     1
176
     1
175
     1
176
     1
 42
1.0
176
     1
 92
        0
176
     1
 66
     7
176
     1
 43
1.0
176
     1
 76
     1
176
     1
 77
     6
176
     1
 78
     2
176
     1
 67
     7
176
     1
 79
     5
176
     1
170
     0
176
     1
171
     0
176
     1
290
     0
176
     1
 93
       13
176
     1
 44
0.0
176
     1
173
     0
176
     1
  0
VISUALSTYLE
  5
2E
102
{ACAD_REACTORS
330
2A
102
}
102
{ACAD_XDICTIONARY
360
458
102
}
330
2A
100
AcDbVisualStyle
  2
GouraudWithEdges
 70
     3
177
     2
291
     1
 71
     2
176
     1
 72
     2
176
     1
 73
     1
176
     1
 90
        2
176
     1
 40
0.6
176
     1
 41
30.0
176
     1
 62
     5
 63
     7
421
 16777215
176
     1
 74
     1
176
     1
 91
        0
176
     1
 64
     7
176
     1
 65
   257
176
     1
 75
     1
176
     1
175
     1
176
     1
 42
1.0
176
     1
 92
        0
176
     1
 66
   257
176
     1
 43
1.0
176
     1
 76
     1
176
     1
 77
     6
176
     1
 78
     2
176
     1
 67
     7
176
     1
 79
     5
176
     1
170
     0
176
     1
171
     0
176
     1
290
     0
176
     1
 93
       13
176
     1
 44
0.0
176
     1
173
     0
176
     1
  0
VISUALSTYLE
  5
31
102
{ACAD_REACTORS
330
2A
102
}
102
{ACAD_XDICTIONARY
360
45E
102
}
330
2A
100
AcDbVisualStyle
  2
Hidden
 70
     6
177
     2
291
     0
 71
     1
176
     1
 72
     2
176
     1
 73
     2
176
     1
 90
        0
176
     1
 40
0.6
176
     1
 41
30.0
176
     1
 62
     5
 63
     7
421
 16777215
176
     1
 74
     2
176
     1
 91
        2
176
     1
 64
     7
176
     1
 65
   257
176
     1
 75
     2
176
     1
175
     1
176
     1
 42
40.0
176
     1
 92
        0
176
     1
 66
   257
176
     1
 43
1.0
176
     1
 76
     1
176
     1
 77
     6
176
     1
 78
     2
176
     1
 67
     7
176
     1
 79
     3
176
     1
170
     0
176
     1
171
     0
176
     1
290
     0
176
     1
 93
        1
176
     1
 44
0.0
176
     1
173
     0
176
     1
  0
VISUALSTYLE
  5
3B
102
{ACAD_REACTORS
330
2A
102
}
102
{ACAD_XDICTIONARY
360
472
102
}
330
2A
100
AcDbVisualStyle
  2
JitterOff
 70
    20
177
     2
291
     1
 71
     2
176
     0
 72
     2
176
     0
 73
     0
176
     0
 90
        0
176
     0
 40
0.6
176
     0
 41
30.0
176
     0
 62
     5
 63
     7
421
 16777215
176
     0
 74
     1
176
     0
 91
        4
176
     0
 64
     7
176
     0
 65
   257
176
     0
 75
     1
176
     0
175
     1
176
     0
 42
1.0
176
     0
 92
       10
176
     2
 66
     7
176
     0
 43
1.0
176
     0
 76
     1
176
     0
 77
     6
176
     0
 78
     2
176
     0
 67
     7
176
     0
 79
     5
176
     0
170
     0
176
     0
171
     0
176
     0
290
     0
176
     0
 93
        1
176
     0
 44
0.0
176
     0
173
     0
176
     0
  0
VISUALSTYLE
  5
38
102
{ACAD_REACTORS
330
2A
102
}
102
{ACAD_XDICTIONARY
360
46C
102
}
330
2A
100
AcDbVisualStyle
  2
Linepattern
 70
    14
177
     2
291
     1
 71
     2
176
     1
 72
     2
176
     1
 73
     0
176
     1
 90
        0
176
     1
 40
0.6
176
     1
 41
30.0
176
     1
 62
     5
 63
     7
421
 16777215
176
     1
 74
     1
176
     1
 91
        4
176
     1
 64
     7
176
     1
 65
   257
176
     1
 75
     7
176
     1
175
     7
176
     1
 42
1.0
176
     1
 92
        8
176
     1
 66
     7
176
     1
 43
1.0
176
     1
 76
     1
176
     1
 77
     6
176
     1
 78
     2
176
     1
 67
     7
176
     1
 79
     5
176
     1
170
     0
176
     1
171
     0
176
     1
290
     0
176
     1
 93
        1
176
     1
 44
0.0
176
     1
173
     0
176
     1
  0
VISUALSTYLE
  5
3C
102
{ACAD_REACTORS
330
2A
102
}
102
{ACAD_XDICTIONARY
360
474
102
}
330
2A
100
AcDbVisualStyle
  2
OverhangOff
 70
    21
177
     2
291
     1
 71
     2
176
     0
 72
     2
176
     0
 73
     0
176
     0
 90
        0
176
     0
 40
0.6
176
     0
 41
30.0
176
     0
 62
     5
 63
     7
421
 16777215
176
     0
 74
     1
176
     0
 91
        4
176
     0
 64
     7
176
     0
 65
   257
176
     0
 75
     1
176
     0
175
     1
176
     0
 42
1.0
176
     0
 92
        9
176
     2
 66
     7
176
     0
 43
1.0
176
     0
 76
     1
176
     0
 77
     6
176
     0
 78
     2
176
     0
 67
     7
176
     0
 79
     5
176
     0
170
     0
176
     0
171
     0
176
     0
290
     0
176
     0
 93
        1
176
     0
 44
0.0
176
     0
173
     0
176
     0
  0
VISUALSTYLE
  5
33
102
{ACAD_REACTORS
330
2A
102
}
102
{ACAD_XDICTIONARY
360
462
102
}
330
2A
100
AcDbVisualStyle
  2
Realistic
 70
     8
177
     2
291
     0
 71
     2
176
     1
 72
     3
176
     1
 73
     0
176
     1
 90
        2
176
     1
 40
0.6
176
     1
 41
30.0
176
     1
 62
     5
 63
     7
421
 16777215
176
     1
 74
     0
176
     1
 91
        0
176
     1
 64
     7
176
     1
 65
   257
176
     1
 75
     1
176
     1
175
     1
176
     1
 42
1.0
176
     1
 92
        8
176
     1
 66
   257
176
     1
 43
1.0
176
     1
 76
     1
176
     1
 77
     6
176
     1
 78
     2
176
     1
 67
     7
176
     1
 79
     3
176
     1
170
     0
176
     1
171
     0
176
     1
290
     0
176
     1
 93
       13
176
     1
 44
0.0
176
     1
173
     0
176
     1
  0
VISUALSTYLE
  5
42
102
{ACAD_REACTORS
330
2A
102
}
102
{ACAD_XDICTIONARY
360
480
102
}
330
2A
100
AcDbVisualStyle
  2
Shaded
 70
    27
177
     2
291
     0
 71
     2
176
     1
 72
     2
176
     1
 73
     1
176
     1
 90
        2
176
     1
 40
0.6
176
     1
 41
30.0
176
     1
 62
     5
 63
     7
421
 16777215
176
     1
 74
     0
176
     1
 91
        4
176
     1
 64
     7
176
     1
 65
   257
176
     1
 75
     1
176
     1
175
     1
176
     1
 42
1.0
176
     1
 92
        8
176
     1
 66
   257
176
     1
 43
1.0
176
     1
 76
     1
176
     1
 77
     6
176
     1
 78
     2
176
     1
 67
     8
425
  7895160
176
     1
 79
     3
176
     1
170
     0
176
     1
171
     0
176
     1
290
     0
176
     1
 93
        5
176
     1
 44
0.0
176
     1
173
     0
176
     1
  0
VISUALSTYLE
  5
41
102
{ACAD_REACTORS
330
2A
102
}
102
{ACAD_XDICTIONARY
360
47E
102
}
330
2A
100
AcDbVisualStyle
  2
Shaded with edges
 70
    26
177
     2
291
     0
 71
     2
176
     1
 72
     2
176
     1
 73
     1
176
     1
 90
        2
176
     1
 40
0.6
176
     1
 41
30.0
176
     1
 62
     5
 63
     7
421
 16777215
176
     1
 74
     1
176
     1
 91
       10
176
     1
 64
     7
176
     1
 65
   257
176
     1
 75
     2
176
     1
175
     1
176
     1
 42
1.0
176
     1
 92
        8
176
     1
 66
   257
176
     1
 43
1.0
176
     1
 76
     1
176
     1
 77
     6
176
     1
 78
     2
176
     1
 67
     7
176
     1
 79
     3
176
     1
170
     0
176
     1
171
     0
176
     1
290
     0
176
     1
 93
        5
176
     1
 44
0.0
176
     1
173
     0
176
     1
  0
VISUALSTYLE
  5
3E
102
{ACAD_REACTORS
330
2A
102
}
102
{ACAD_XDICTIONARY
360
478
102
}
330
2A
100
AcDbVisualStyle
  2
Shades of Gray
 70
    23
177
     2
291
     0
 71
     2
176
     1
 72
     2
176
     1
 73
     3
176
     1
 90
        0
176
     1
 40
0.6
176
     1
 41
30.0
176
     1
 62
     5
 63
     7
421
 16777215
176
     1
 74
     2
176
     1
 91
        2
176
     1
 64
     7
176
     1
 65
     7
176
     1
 75
     1
176
     1
175
     1
176
     1
 42
40.0
176
     1
 92
        8
176
     1
 66
     7
176
     1
 43
1.0
176
     1
 76
     1
176
     1
 77
     6
176
     1
 78
     2
176
     1
 67
     7
176
     1
 79
     3
176
     1
170
     0
176
     1
171
     0
176
     1
290
     0
176
     1
 93
        1
176
     1
 44
0.0
176
     1
173
     0
176
     1
  0
VISUALSTYLE
  5
3F
102
{ACAD_REACTORS
330
2A
102
}
102
{ACAD_XDICTIONARY
360
47A
102
}
330
2A
100
AcDbVisualStyle
  2
Sketchy
 70
    24
177
     2
291
     0
 71
     1
176
     1
 72
     2
176
     1
 73
     2
176
     1
 90
        0
176
     1
 40
0.6
176
     1
 41
30.0
176
     1
 62
     5
 63
     7
421
 16777215
176
     1
 74
     2
176
     1
 91
        2
176
     1
 64
     7
176
     1
 65
     7
176
     1
 75
     1
176
     1
175
     1
176
     1
 42
40.0
176
     1
 92
       11
176
     1
 66
     7
176
     1
 43
1.0
176
     1
 76
     1
176
     1
 77
     6
176
     1
 78
     2
176
     1
 67
     7
176
     1
 79
     6
176
     1
170
     0
176
     1
171
     0
176
     1
290
     0
176
     1
 93
        1
176
     1
 44
0.0
176
     1
173
     0
176
     1
  0
VISUALSTYLE
  5
37
102
{ACAD_REACTORS
330
2A
102
}
102
{ACAD_XDICTIONARY
360
46A
102
}
330
2A
100
AcDbVisualStyle
  2
Thicken
 70
    13
177
     2
291
     1
 71
     2
176
     1
 72
     2
176
     1
 73
     0
176
     1
 90
        0
176
     1
 40
0.6
176
     1
 41
30.0
176
     1
 62
     5
 63
     7
421
 16777215
176
     1
 74
     1
176
     1
 91
        4
176
     1
 64
     7
176
     1
 65
   257
176
     1
 75
     1
176
     1
175
     1
176
     1
 42
1.0
176
     1
 92
       12
176
     1
 66
     7
176
     1
 43
1.0
176
     1
 76
     1
176
     1
 77
     6
176
     1
 78
     2
176
     1
 67
     7
176
     1
 79
     5
176
     1
170
     0
176
     1
171
     0
176
     1
290
     0
176
     1
 93
        1
176
     1
 44
0.0
176
     1
173
     0
176
     1
  0
VISUALSTYLE
  5
30
102
{ACAD_REACTORS
330
2A
102
}
102
{ACAD_XDICTIONARY
360
45C
102
}
330
2A
100
AcDbVisualStyle
  2
Wireframe
 70
     5
177
     2
291
     0
 71
     0
176
     1
 72
     2
176
     1
 73
     0
176
     1
 90
        0
176
     1
 40
0.6
176
     1
 41
30.0
176
     1
 62
     5
 63
     7
421
 16777215
176
     1
 74
     1
176
     1
 91
        4
176
     1
 64
     7
176
     1
 65
   257
176
     1
 75
     1
176
     1
175
     1
176
     1
 42
1.0
176
     1
 92
        0
176
     1
 66
   257
176
     1
 43
1.0
176
     1
 76
     1
176
     1
 77
     6
176
     1
 78
     2
176
     1
 67
     7
176
     1
 79
     3
176
     1
170
     0
176
     1
171
     0
176
     1
290
     0
176
     1
 93
        1
176
     1
 44
0.0
176
     1
173
     0
176
     1
  0
VISUALSTYLE
  5
40
102
{ACAD_REACTORS
330
2A
102
}
102
{ACAD_XDICTIONARY
360
47C
102
}
330
2A
100
AcDbVisualStyle
  2
X-Ray
 70
    25
177
     2
291
     0
 71
     2
176
     1
 72
     2
176
     1
 73
     1
176
     1
 90
        1
176
     1
 40
0.5
176
     1
 41
30.0
176
     1
 62
     5
 63
     7
421
 16777215
176
     1
 74
     1
176
     1
 91
        0
176
     1
 64
     7
176
     1
 65
   257
176
     1
 75
     1
176
     1
175
     1
176
     1
 42
1.0
176
     1
 92
        8
176
     1
 66
     7
176
     1
 43
1.0
176
     1
 76
     1
176
     1
 77
     6
176
     1
 78
     2
176
     1
 67
     7
176
     1
 79
     3
176
     1
170
     0
176
     1
171
     0
176
     1
290
     0
176
     1
 93
       13
176
     1
 44
0.0
176
     1
173
     0
176
     1
  0
DICTIONARYVAR
  5
451
102
{ACAD_REACTORS
330
450
102
}
330
450
100
DictionaryVariables
280
     0
  1
1:1
  0
DICTIONARYVAR
  5
486
102
{ACAD_REACTORS
330
450
102
}
330
450
100
DictionaryVariables
280
     0
  1
Standard
  0
DICTIONARYVAR
  5
485
102
{ACAD_REACTORS
330
450
102
}
330
450
100
DictionaryVariables
280
     0
  1
Standard
  0
DICTIONARY
  5
482
330
6A
100
AcDbDictionary
280
     1
281
     1
  3
ACAD_ROUNDTRIP_2008_TABLESTYLE_CELLSTYLEMAP
360
483
  0
DICTIONARY
  5
45A
330
2F
100
AcDbDictionary
280
     1
281
     1
  3
ACAD_XREC_ROUNDTRIP
360
45B
  0
DICTIONARY
  5
460
330
32
100
AcDbDictionary
280
     1
281
     1
  3
ACAD_XREC_ROUNDTRIP
360
461
  0
DICTIONARY
  5
468
330
36
100
AcDbDictionary
280
     1
281
     1
  3
ACAD_XREC_ROUNDTRIP
360
469
  0
DICTIONARY
  5
470
330
3A
100
AcDbDictionary
280
     1
281
     1
  3
ACAD_XREC_ROUNDTRIP
360
471
  0
DICTIONARY
  5
464
330
34
100
AcDbDictionary
280
     1
281
     1
  3
ACAD_XREC_ROUNDTRIP
360
465
  0
DICTIONARY
  5
466
330
35
100
AcDbDictionary
280
     1
281
     1
  3
ACAD_XREC_ROUNDTRIP
360
467
  0
DICTIONARY
  5
476
330
3D
100
AcDbDictionary
280
     1
281
     1
  3
ACAD_XREC_ROUNDTRIP
360
477
  0
DICTIONARY
  5
46E
330
39
100
AcDbDictionary
280
     1
281
     1
  3
ACAD_XREC_ROUNDTRIP
360
46F
  0
DICTIONARY
  5
452
330
2B
100
AcDbDictionary
280
     1
281
     1
  3
ACAD_XREC_ROUNDTRIP
360
453
  0
DICTIONARY
  5
454
330
2C
100
AcDbDictionary
280
     1
281
     1
  3
ACAD_XREC_ROUNDTRIP
360
455
  0
DICTIONARY
  5
456
330
2D
100
AcDbDictionary
280
     1
281
     1
  3
ACAD_XREC_ROUNDTRIP
360
457
  0
DICTIONARY
  5
458
330
2E
100
AcDbDictionary
280
     1
281
     1
  3
ACAD_XREC_ROUNDTRIP
360
459
  0
DICTIONARY
  5
45E
330
31
100
AcDbDictionary
280
     1
281
     1
  3
ACAD_XREC_ROUNDTRIP
360
45F
  0
DICTIONARY
  5
472
330
3B
100
AcDbDictionary
280
     1
281
     1
  3
ACAD_XREC_ROUNDTRIP
360
473
  0
DICTIONARY
  5
46C
330
38
100
AcDbDictionary
280
     1
281
     1
  3
ACAD_XREC_ROUNDTRIP
360
46D
  0
DICTIONARY
  5
474
330
3C
100
AcDbDictionary
280
     1
281
     1
  3
ACAD_XREC_ROUNDTRIP
360
475
  0
DICTIONARY
  5
462
330
33
100
AcDbDictionary
280
     1
281
     1
  3
ACAD_XREC_ROUNDTRIP
360
463
  0
DICTIONARY
  5
480
330
42
100
AcDbDictionary
280
     1
281
     1
  3
ACAD_XREC_ROUNDTRIP
360
481
  0
DICTIONARY
  5
47E
330
41
100
AcDbDictionary
280
     1
281
     1
  3
ACAD_XREC_ROUNDTRIP
360
47F
  0
DICTIONARY
  5
478
330
3E
100
AcDbDictionary
280
     1
281
     1
  3
ACAD_XREC_ROUNDTRIP
360
479
  0
DICTIONARY
  5
47A
330
3F
100
AcDbDictionary
280
     1
281
     1
  3
ACAD_XREC_ROUNDTRIP
360
47B
  0
DICTIONARY
  5
46A
330
37
100
AcDbDictionary
280
     1
281
     1
  3
ACAD_XREC_ROUNDTRIP
360
46B
  0
DICTIONARY
  5
45C
330
30
100
AcDbDictionary
280
     1
281
     1
  3
ACAD_XREC_ROUNDTRIP
360
45D
  0
DICTIONARY
  5
47C
330
40
100
AcDbDictionary
280
     1
281
     1
  3
ACAD_XREC_ROUNDTRIP
360
47D
  0
CELLSTYLEMAP
  5
483
102
{ACAD_REACTORS
330
482
102
}
330
482
100
AcDbCellStyleMap
 90
        3
300
CELLSTYLE
  1
TABLEFORMAT_BEGIN
 90
        5
170
     1
 91
        0
 92
    32768
 62
   257
 93
        1
300
CONTENTFORMAT
  1
CONTENTFORMAT_BEGIN
 90
        0
 91
        0
 92
        4
 93
        0
300

 40
0.0
140
1.0
 94
        5
 62
     0
340
11
144
0.25
309
CONTENTFORMAT_END
171
     1
301
MARGIN
  1
CELLMARGIN_BEGIN
 40
0.06
 40
0.06
 40
0.06
 40
0.06
 40
0.06
 40
0.06
309
CELLMARGIN_END
 94
        6
 95
        1
302
GRIDFORMAT
  1
GRIDFORMAT_BEGIN
 90
        0
 91
        1
 62
     0
 92
       -2
340
14
 93
        0
 40
0.045
309
GRIDFORMAT_END
 95
        2
302
GRIDFORMAT
  1
GRIDFORMAT_BEGIN
 90
        0
 91
        1
 62
     0
 92
       -2
340
14
 93
        0
 40
0.045
309
GRIDFORMAT_END
 95
        4
302
GRIDFORMAT
  1
GRIDFORMAT_BEGIN
 90
        0
 91
        1
 62
     0
 92
       -2
340
14
 93
        0
 40
0.045
309
GRIDFORMAT_END
 95
        8
302
GRIDFORMAT
  1
GRIDFORMAT_BEGIN
 90
        0
 91
        1
 62
     0
 92
       -2
340
14
 93
        0
 40
0.045
309
GRIDFORMAT_END
 95
       16
302
GRIDFORMAT
  1
GRIDFORMAT_BEGIN
 90
        0
 91
        1
 62
     0
 92
       -2
340
14
 93
        0
 40
0.045
309
GRIDFORMAT_END
 95
       32
302
GRIDFORMAT
  1
GRIDFORMAT_BEGIN
 90
        0
 91
        1
 62
     0
 92
       -2
340
14
 93
        0
 40
0.045
309
GRIDFORMAT_END
309
TABLEFORMAT_END
  1
CELLSTYLE_BEGIN
 90
        1
 91
        1
300
_TITLE
309
CELLSTYLE_END
300
CELLSTYLE
  1
TABLEFORMAT_BEGIN
 90
        5
170
     1
 91
        0
 92
        0
 62
   257
 93
        1
300
CONTENTFORMAT
  1
CONTENTFORMAT_BEGIN
 90
        0
 91
        0
 92
        4
 93
        0
300

 40
0.0
140
1.0
 94
        5
 62
     0
340
11
144
0.18
309
CONTENTFORMAT_END
171
     1
301
MARGIN
  1
CELLMARGIN_BEGIN
 40
0.06
 40
0.06
 40
0.06
 40
0.06
 40
0.06
 40
0.06
309
CELLMARGIN_END
 94
        6
 95
        1
302
GRIDFORMAT
  1
GRIDFORMAT_BEGIN
 90
        0
 91
        1
 62
     0
 92
       -2
340
14
 93
        0
 40
0.045
309
GRIDFORMAT_END
 95
        2
302
GRIDFORMAT
  1
GRIDFORMAT_BEGIN
 90
        0
 91
        1
 62
     0
 92
       -2
340
14
 93
        0
 40
0.045
309
GRIDFORMAT_END
 95
        4
302
GRIDFORMAT
  1
GRIDFORMAT_BEGIN
 90
        0
 91
        1
 62
     0
 92
       -2
340
14
 93
        0
 40
0.045
309
GRIDFORMAT_END
 95
        8
302
GRIDFORMAT
  1
GRIDFORMAT_BEGIN
 90
        0
 91
        1
 62
     0
 92
       -2
340
14
 93
        0
 40
0.045
309
GRIDFORMAT_END
 95
       16
302
GRIDFORMAT
  1
GRIDFORMAT_BEGIN
 90
        0
 91
        1
 62
     0
 92
       -2
340
14
 93
        0
 40
0.045
309
GRIDFORMAT_END
 95
       32
302
GRIDFORMAT
  1
GRIDFORMAT_BEGIN
 90
        0
 91
        1
 62
     0
 92
       -2
340
14
 93
        0
 40
0.045
309
GRIDFORMAT_END
309
TABLEFORMAT_END
  1
CELLSTYLE_BEGIN
 90
        2
 91
        1
300
_HEADER
309
CELLSTYLE_END
300
CELLSTYLE
  1
TABLEFORMAT_BEGIN
 90
        5
170
     1
 91
        0
 92
        0
 62
   257
 93
        1
300
CONTENTFORMAT
  1
CONTENTFORMAT_BEGIN
 90
        0
 91
        0
 92
        4
 93
        0
300

 40
0.0
140
1.0
 94
        2
 62
     0
340
11
144
0.18
309
CONTENTFORMAT_END
171
     1
301
MARGIN
  1
CELLMARGIN_BEGIN
 40
0.06
 40
0.06
 40
0.06
 40
0.06
 40
0.06
 40
0.06
309
CELLMARGIN_END
 94
        6
 95
        1
302
GRIDFORMAT
  1
GRIDFORMAT_BEGIN
 90
        0
 91
        1
 62
     0
 92
       -2
340
14
 93
        0
 40
0.045
309
GRIDFORMAT_END
 95
        2
302
GRIDFORMAT
  1
GRIDFORMAT_BEGIN
 90
        0
 91
        1
 62
     0
 92
       -2
340
14
 93
        0
 40
0.045
309
GRIDFORMAT_END
 95
        4
302
GRIDFORMAT
  1
GRIDFORMAT_BEGIN
 90
        0
 91
        1
 62
     0
 92
       -2
340
14
 93
        0
 40
0.045
309
GRIDFORMAT_END
 95
        8
302
GRIDFORMAT
  1
GRIDFORMAT_BEGIN
 90
        0
 91
        1
 62
     0
 92
       -2
340
14
 93
        0
 40
0.045
309
GRIDFORMAT_END
 95
       16
302
GRIDFORMAT
  1
GRIDFORMAT_BEGIN
 90
        0
 91
        1
 62
     0
 92
       -2
340
14
 93
        0
 40
0.045
309
GRIDFORMAT_END
 95
       32
302
GRIDFORMAT
  1
GRIDFORMAT_BEGIN
 90
        0
 91
        1
 62
     0
 92
       -2
340
14
 93
        0
 40
0.045
309
GRIDFORMAT_END
309
TABLEFORMAT_END
  1
CELLSTYLE_BEGIN
 90
        3
 91
        2
300
_DATA
309
CELLSTYLE_END
  0
XRECORD
  5
45B
102
{ACAD_REACTORS
330
45A
102
}
330
45A
100
AcDbXrecord
280
     1
102
RTVSPost2010Prop28
280
     1
102
RTVSPost2010PropOp28
 70
     1
102
RTVSPost2010Prop29
280
     1
102
RTVSPost2010PropOp29
 70
     1
102
RTVSPost2010Prop30
280
     0
102
RTVSPost2010PropOp30
 70
     1
102
RTVSPost2010Prop31
280
     0
102
RTVSPost2010PropOp31
 70
     1
102
RTVSPost2010Prop32
280
     0
102
RTVSPost2010PropOp32
 70
     1
102
RTVSPost2010Prop33
280
     0
102
RTVSPost2010PropOp33
 70
     1
102
RTVSPost2010Prop34
280
     0
102
RTVSPost2010PropOp34
 70
     1
102
RTVSPost2010Prop35
280
     0
102
RTVSPost2010PropOp35
 70
     1
102
RTVSPost2010Prop36
280
     0
102
RTVSPost2010PropOp36
 70
     1
102
RTVSPost2010Prop37
 90
       50
102
RTVSPost2010PropOp37
 70
     1
102
RTVSPost2010Prop38
140
0.0
102
RTVSPost2010PropOp38
 70
     1
102
RTVSPost2010Prop39
140
1.0
102
RTVSPost2010PropOp39
 70
     1
102
RTVSPost2010Prop40
 90
        0
102
RTVSPost2010PropOp40
 70
     1
102
RTVSPost2010Prop41ColorIndex
 90
       18
102
RTVSPost2010Prop41ColorRGB
 90
        0
102
RTVSPost2010PropOp41
 70
     1
102
RTVSPost2010Prop42
 90
       50
102
RTVSPost2010PropOp42
 70
     1
102
RTVSPost2010Prop43
 90
        3
102
RTVSPost2010PropOp43
 70
     1
102
RTVSPost2010Prop44ColorIndex
 90
        5
102
RTVSPost2010Prop44ColorRGB
 90
      255
102
RTVSPost2010PropOp44
 70
     1
102
RTVSPost2010Prop45
280
     0
102
RTVSPost2010PropOp45
 70
     1
102
RTVSPost2010Prop46
 90
       50
102
RTVSPost2010PropOp46
 70
     1
102
RTVSPost2010Prop47
 90
       50
102
RTVSPost2010PropOp47
 70
     1
102
RTVSPost2010Prop48
 90
       50
102
RTVSPost2010PropOp48
 70
     1
102
RTVSPost2010Prop49
280
     0
102
RTVSPost2010PropOp49
 70
     1
102
RTVSPost2010Prop50
 90
       50
102
RTVSPost2010PropOp50
 70
     1
102
RTVSPost2010Prop51ColorIndex
 90
      256
102
RTVSPost2010Prop51ColorRGB
 90
-16777216
102
RTVSPost2010PropOp51
 70
     0
102
RTVSPost2010Prop52
140
1.0
102
RTVSPost2010PropOp52
 70
     0
102
RTVSPost2010Prop53
 90
        2
102
RTVSPost2010PropOp53
 70
     1
102
RTVSPost2010Prop54
  1
strokes_ogs.tif
102
RTVSPost2010PropOp54
 70
     1
102
RTVSPost2010Prop55
280
     0
102
RTVSPost2010PropOp55
 70
     1
102
RTVSPost2010Prop56
140
1.0
102
RTVSPost2010PropOp56
 70
     1
102
RTVSPost2010Prop57
140
1.0
102
RTVSPost2010PropOp57
 70
     1
  0
XRECORD
  5
461
102
{ACAD_REACTORS
330
460
102
}
330
460
100
AcDbXrecord
280
     1
102
RTVSPost2010Prop28
280
     0
102
RTVSPost2010PropOp28
 70
     1
102
RTVSPost2010Prop29
280
     1
102
RTVSPost2010PropOp29
 70
     1
102
RTVSPost2010Prop30
280
     1
102
RTVSPost2010PropOp30
 70
     1
102
RTVSPost2010Prop31
280
     0
102
RTVSPost2010PropOp31
 70
     1
102
RTVSPost2010Prop32
280
     0
102
RTVSPost2010PropOp32
 70
     1
102
RTVSPost2010Prop33
280
     0
102
RTVSPost2010PropOp33
 70
     1
102
RTVSPost2010Prop34
280
     0
102
RTVSPost2010PropOp34
 70
     1
102
RTVSPost2010Prop35
280
     0
102
RTVSPost2010PropOp35
 70
     1
102
RTVSPost2010Prop36
280
     0
102
RTVSPost2010PropOp36
 70
     1
102
RTVSPost2010Prop37
 90
       50
102
RTVSPost2010PropOp37
 70
     1
102
RTVSPost2010Prop38
140
0.0
102
RTVSPost2010PropOp38
 70
     1
102
RTVSPost2010Prop39
140
1.0
102
RTVSPost2010PropOp39
 70
     1
102
RTVSPost2010Prop40
 90
        0
102
RTVSPost2010PropOp40
 70
     1
102
RTVSPost2010Prop41ColorIndex
 90
       18
102
RTVSPost2010Prop41ColorRGB
 90
        0
102
RTVSPost2010PropOp41
 70
     1
102
RTVSPost2010Prop42
 90
       50
102
RTVSPost2010PropOp42
 70
     1
102
RTVSPost2010Prop43
 90
        3
102
RTVSPost2010PropOp43
 70
     1
102
RTVSPost2010Prop44ColorIndex
 90
        5
102
RTVSPost2010Prop44ColorRGB
 90
      255
102
RTVSPost2010PropOp44
 70
     1
102
RTVSPost2010Prop45
280
     0
102
RTVSPost2010PropOp45
 70
     1
102
RTVSPost2010Prop46
 90
       50
102
RTVSPost2010PropOp46
 70
     1
102
RTVSPost2010Prop47
 90
       50
102
RTVSPost2010PropOp47
 70
     1
102
RTVSPost2010Prop48
 90
       50
102
RTVSPost2010PropOp48
 70
     1
102
RTVSPost2010Prop49
280
     0
102
RTVSPost2010PropOp49
 70
     1
102
RTVSPost2010Prop50
 90
       50
102
RTVSPost2010PropOp50
 70
     1
102
RTVSPost2010Prop51ColorIndex
 90
      256
102
RTVSPost2010Prop51ColorRGB
 90
-16777216
102
RTVSPost2010PropOp51
 70
     0
102
RTVSPost2010Prop52
140
1.0
102
RTVSPost2010PropOp52
 70
     0
102
RTVSPost2010Prop53
 90
        2
102
RTVSPost2010PropOp53
 70
     1
102
RTVSPost2010Prop54
  1
strokes_ogs.tif
102
RTVSPost2010PropOp54
 70
     1
102
RTVSPost2010Prop55
280
     0
102
RTVSPost2010PropOp55
 70
     1
102
RTVSPost2010Prop56
140
1.0
102
RTVSPost2010PropOp56
 70
     1
102
RTVSPost2010Prop57
140
1.0
102
RTVSPost2010PropOp57
 70
     1
  0
XRECORD
  5
469
102
{ACAD_REACTORS
330
468
102
}
330
468
100
AcDbXrecord
280
     1
102
RTVSPost2010Prop28
280
     0
102
RTVSPost2010PropOp28
 70
     1
102
RTVSPost2010Prop29
280
     1
102
RTVSPost2010PropOp29
 70
     1
102
RTVSPost2010Prop30
280
     1
102
RTVSPost2010PropOp30
 70
     1
102
RTVSPost2010Prop31
280
     0
102
RTVSPost2010PropOp31
 70
     1
102
RTVSPost2010Prop32
280
     0
102
RTVSPost2010PropOp32
 70
     1
102
RTVSPost2010Prop33
280
     0
102
RTVSPost2010PropOp33
 70
     1
102
RTVSPost2010Prop34
280
     0
102
RTVSPost2010PropOp34
 70
     1
102
RTVSPost2010Prop35
280
     0
102
RTVSPost2010PropOp35
 70
     1
102
RTVSPost2010Prop36
280
     0
102
RTVSPost2010PropOp36
 70
     1
102
RTVSPost2010Prop37
 90
       50
102
RTVSPost2010PropOp37
 70
     1
102
RTVSPost2010Prop38
140
0.0
102
RTVSPost2010PropOp38
 70
     1
102
RTVSPost2010Prop39
140
1.0
102
RTVSPost2010PropOp39
 70
     1
102
RTVSPost2010Prop40
 90
        0
102
RTVSPost2010PropOp40
 70
     1
102
RTVSPost2010Prop41ColorIndex
 90
       18
102
RTVSPost2010Prop41ColorRGB
 90
        0
102
RTVSPost2010PropOp41
 70
     1
102
RTVSPost2010Prop42
 90
       50
102
RTVSPost2010PropOp42
 70
     1
102
RTVSPost2010Prop43
 90
        3
102
RTVSPost2010PropOp43
 70
     1
102
RTVSPost2010Prop44ColorIndex
 90
        5
102
RTVSPost2010Prop44ColorRGB
 90
      255
102
RTVSPost2010PropOp44
 70
     1
102
RTVSPost2010Prop45
280
     0
102
RTVSPost2010PropOp45
 70
     1
102
RTVSPost2010Prop46
 90
       50
102
RTVSPost2010PropOp46
 70
     1
102
RTVSPost2010Prop47
 90
       50
102
RTVSPost2010PropOp47
 70
     1
102
RTVSPost2010Prop48
 90
       50
102
RTVSPost2010PropOp48
 70
     1
102
RTVSPost2010Prop49
280
     0
102
RTVSPost2010PropOp49
 70
     1
102
RTVSPost2010Prop50
 90
       50
102
RTVSPost2010PropOp50
 70
     1
102
RTVSPost2010Prop51ColorIndex
 90
      256
102
RTVSPost2010Prop51ColorRGB
 90
-16777216
102
RTVSPost2010PropOp51
 70
     0
102
RTVSPost2010Prop52
140
1.0
102
RTVSPost2010PropOp52
 70
     0
102
RTVSPost2010Prop53
 90
        2
102
RTVSPost2010PropOp53
 70
     1
102
RTVSPost2010Prop54
  1
strokes_ogs.tif
102
RTVSPost2010PropOp54
 70
     1
102
RTVSPost2010Prop55
280
     0
102
RTVSPost2010PropOp55
 70
     1
102
RTVSPost2010Prop56
140
1.0
102
RTVSPost2010PropOp56
 70
     1
102
RTVSPost2010Prop57
140
1.0
102
RTVSPost2010PropOp57
 70
     1
  0
XRECORD
  5
471
102
{ACAD_REACTORS
330
470
102
}
330
470
100
AcDbXrecord
280
     1
102
RTVSPost2010Prop28
280
     0
102
RTVSPost2010PropOp28
 70
     1
102
RTVSPost2010Prop29
280
     1
102
RTVSPost2010PropOp29
 70
     1
102
RTVSPost2010Prop30
280
     1
102
RTVSPost2010PropOp30
 70
     1
102
RTVSPost2010Prop31
280
     0
102
RTVSPost2010PropOp31
 70
     1
102
RTVSPost2010Prop32
280
     0
102
RTVSPost2010PropOp32
 70
     1
102
RTVSPost2010Prop33
280
     0
102
RTVSPost2010PropOp33
 70
     1
102
RTVSPost2010Prop34
280
     0
102
RTVSPost2010PropOp34
 70
     1
102
RTVSPost2010Prop35
280
     0
102
RTVSPost2010PropOp35
 70
     1
102
RTVSPost2010Prop36
280
     0
102
RTVSPost2010PropOp36
 70
     1
102
RTVSPost2010Prop37
 90
       50
102
RTVSPost2010PropOp37
 70
     1
102
RTVSPost2010Prop38
140
0.0
102
RTVSPost2010PropOp38
 70
     1
102
RTVSPost2010Prop39
140
1.0
102
RTVSPost2010PropOp39
 70
     1
102
RTVSPost2010Prop40
 90
        0
102
RTVSPost2010PropOp40
 70
     1
102
RTVSPost2010Prop41ColorIndex
 90
       18
102
RTVSPost2010Prop41ColorRGB
 90
        0
102
RTVSPost2010PropOp41
 70
     1
102
RTVSPost2010Prop42
 90
       50
102
RTVSPost2010PropOp42
 70
     1
102
RTVSPost2010Prop43
 90
        3
102
RTVSPost2010PropOp43
 70
     1
102
RTVSPost2010Prop44ColorIndex
 90
        5
102
RTVSPost2010Prop44ColorRGB
 90
      255
102
RTVSPost2010PropOp44
 70
     1
102
RTVSPost2010Prop45
280
     0
102
RTVSPost2010PropOp45
 70
     1
102
RTVSPost2010Prop46
 90
       50
102
RTVSPost2010PropOp46
 70
     1
102
RTVSPost2010Prop47
 90
       50
102
RTVSPost2010PropOp47
 70
     1
102
RTVSPost2010Prop48
 90
       50
102
RTVSPost2010PropOp48
 70
     1
102
RTVSPost2010Prop49
280
     0
102
RTVSPost2010PropOp49
 70
     1
102
RTVSPost2010Prop50
 90
       50
102
RTVSPost2010PropOp50
 70
     1
102
RTVSPost2010Prop51ColorIndex
 90
      256
102
RTVSPost2010Prop51ColorRGB
 90
-16777216
102
RTVSPost2010PropOp51
 70
     0
102
RTVSPost2010Prop52
140
1.0
102
RTVSPost2010PropOp52
 70
     0
102
RTVSPost2010Prop53
 90
        2
102
RTVSPost2010PropOp53
 70
     1
102
RTVSPost2010Prop54
  1
strokes_ogs.tif
102
RTVSPost2010PropOp54
 70
     1
102
RTVSPost2010Prop55
280
     0
102
RTVSPost2010PropOp55
 70
     1
102
RTVSPost2010Prop56
140
1.0
102
RTVSPost2010PropOp56
 70
     1
102
RTVSPost2010Prop57
140
1.0
102
RTVSPost2010PropOp57
 70
     1
  0
XRECORD
  5
465
102
{ACAD_REACTORS
330
464
102
}
330
464
100
AcDbXrecord
280
     1
102
RTVSPost2010Prop28
280
     0
102
RTVSPost2010PropOp28
 70
     1
102
RTVSPost2010Prop29
280
     1
102
RTVSPost2010PropOp29
 70
     1
102
RTVSPost2010Prop30
280
     1
102
RTVSPost2010PropOp30
 70
     1
102
RTVSPost2010Prop31
280
     0
102
RTVSPost2010PropOp31
 70
     1
102
RTVSPost2010Prop32
280
     0
102
RTVSPost2010PropOp32
 70
     1
102
RTVSPost2010Prop33
280
     0
102
RTVSPost2010PropOp33
 70
     1
102
RTVSPost2010Prop34
280
     0
102
RTVSPost2010PropOp34
 70
     1
102
RTVSPost2010Prop35
280
     0
102
RTVSPost2010PropOp35
 70
     1
102
RTVSPost2010Prop36
280
     0
102
RTVSPost2010PropOp36
 70
     1
102
RTVSPost2010Prop37
 90
       50
102
RTVSPost2010PropOp37
 70
     1
102
RTVSPost2010Prop38
140
0.0
102
RTVSPost2010PropOp38
 70
     1
102
RTVSPost2010Prop39
140
1.0
102
RTVSPost2010PropOp39
 70
     1
102
RTVSPost2010Prop40
 90
        0
102
RTVSPost2010PropOp40
 70
     1
102
RTVSPost2010Prop41ColorIndex
 90
       18
102
RTVSPost2010Prop41ColorRGB
 90
        0
102
RTVSPost2010PropOp41
 70
     1
102
RTVSPost2010Prop42
 90
       50
102
RTVSPost2010PropOp42
 70
     1
102
RTVSPost2010Prop43
 90
        3
102
RTVSPost2010PropOp43
 70
     1
102
RTVSPost2010Prop44ColorIndex
 90
        5
102
RTVSPost2010Prop44ColorRGB
 90
      255
102
RTVSPost2010PropOp44
 70
     1
102
RTVSPost2010Prop45
280
     0
102
RTVSPost2010PropOp45
 70
     1
102
RTVSPost2010Prop46
 90
       50
102
RTVSPost2010PropOp46
 70
     1
102
RTVSPost2010Prop47
 90
       50
102
RTVSPost2010PropOp47
 70
     1
102
RTVSPost2010Prop48
 90
       50
102
RTVSPost2010PropOp48
 70
     1
102
RTVSPost2010Prop49
280
     0
102
RTVSPost2010PropOp49
 70
     1
102
RTVSPost2010Prop50
 90
       50
102
RTVSPost2010PropOp50
 70
     1
102
RTVSPost2010Prop51ColorIndex
 90
      256
102
RTVSPost2010Prop51ColorRGB
 90
-16777216
102
RTVSPost2010PropOp51
 70
     0
102
RTVSPost2010Prop52
140
1.0
102
RTVSPost2010PropOp52
 70
     0
102
RTVSPost2010Prop53
 90
        2
102
RTVSPost2010PropOp53
 70
     1
102
RTVSPost2010Prop54
  1
strokes_ogs.tif
102
RTVSPost2010PropOp54
 70
     1
102
RTVSPost2010Prop55
280
     0
102
RTVSPost2010PropOp55
 70
     1
102
RTVSPost2010Prop56
140
1.0
102
RTVSPost2010PropOp56
 70
     1
102
RTVSPost2010Prop57
140
1.0
102
RTVSPost2010PropOp57
 70
     1
  0
XRECORD
  5
467
102
{ACAD_REACTORS
330
466
102
}
330
466
100
AcDbXrecord
280
     1
102
RTVSPost2010Prop28
280
     0
102
RTVSPost2010PropOp28
 70
     1
102
RTVSPost2010Prop29
280
     1
102
RTVSPost2010PropOp29
 70
     1
102
RTVSPost2010Prop30
280
     1
102
RTVSPost2010PropOp30
 70
     1
102
RTVSPost2010Prop31
280
     0
102
RTVSPost2010PropOp31
 70
     1
102
RTVSPost2010Prop32
280
     0
102
RTVSPost2010PropOp32
 70
     1
102
RTVSPost2010Prop33
280
     0
102
RTVSPost2010PropOp33
 70
     1
102
RTVSPost2010Prop34
280
     0
102
RTVSPost2010PropOp34
 70
     1
102
RTVSPost2010Prop35
280
     0
102
RTVSPost2010PropOp35
 70
     1
102
RTVSPost2010Prop36
280
     0
102
RTVSPost2010PropOp36
 70
     1
102
RTVSPost2010Prop37
 90
       50
102
RTVSPost2010PropOp37
 70
     1
102
RTVSPost2010Prop38
140
0.0
102
RTVSPost2010PropOp38
 70
     1
102
RTVSPost2010Prop39
140
1.0
102
RTVSPost2010PropOp39
 70
     1
102
RTVSPost2010Prop40
 90
        0
102
RTVSPost2010PropOp40
 70
     1
102
RTVSPost2010Prop41ColorIndex
 90
       18
102
RTVSPost2010Prop41ColorRGB
 90
        0
102
RTVSPost2010PropOp41
 70
     1
102
RTVSPost2010Prop42
 90
       50
102
RTVSPost2010PropOp42
 70
     1
102
RTVSPost2010Prop43
 90
        3
102
RTVSPost2010PropOp43
 70
     1
102
RTVSPost2010Prop44ColorIndex
 90
        5
102
RTVSPost2010Prop44ColorRGB
 90
      255
102
RTVSPost2010PropOp44
 70
     1
102
RTVSPost2010Prop45
280
     0
102
RTVSPost2010PropOp45
 70
     1
102
RTVSPost2010Prop46
 90
       50
102
RTVSPost2010PropOp46
 70
     1
102
RTVSPost2010Prop47
 90
       50
102
RTVSPost2010PropOp47
 70
     1
102
RTVSPost2010Prop48
 90
       50
102
RTVSPost2010PropOp48
 70
     1
102
RTVSPost2010Prop49
280
     0
102
RTVSPost2010PropOp49
 70
     1
102
RTVSPost2010Prop50
 90
       50
102
RTVSPost2010PropOp50
 70
     1
102
RTVSPost2010Prop51ColorIndex
 90
      256
102
RTVSPost2010Prop51ColorRGB
 90
-16777216
102
RTVSPost2010PropOp51
 70
     0
102
RTVSPost2010Prop52
140
1.0
102
RTVSPost2010PropOp52
 70
     0
102
RTVSPost2010Prop53
 90
        2
102
RTVSPost2010PropOp53
 70
     1
102
RTVSPost2010Prop54
  1
strokes_ogs.tif
102
RTVSPost2010PropOp54
 70
     1
102
RTVSPost2010Prop55
280
     0
102
RTVSPost2010PropOp55
 70
     1
102
RTVSPost2010Prop56
140
1.0
102
RTVSPost2010PropOp56
 70
     1
102
RTVSPost2010Prop57
140
1.0
102
RTVSPost2010PropOp57
 70
     1
  0
XRECORD
  5
477
102
{ACAD_REACTORS
330
476
102
}
330
476
100
AcDbXrecord
280
     1
102
RTVSPost2010Prop28
280
     0
102
RTVSPost2010PropOp28
 70
     0
102
RTVSPost2010Prop29
280
     1
102
RTVSPost2010PropOp29
 70
     0
102
RTVSPost2010Prop30
280
     1
102
RTVSPost2010PropOp30
 70
     0
102
RTVSPost2010Prop31
280
     0
102
RTVSPost2010PropOp31
 70
     0
102
RTVSPost2010Prop32
280
     0
102
RTVSPost2010PropOp32
 70
     0
102
RTVSPost2010Prop33
280
     0
102
RTVSPost2010PropOp33
 70
     0
102
RTVSPost2010Prop34
280
     0
102
RTVSPost2010PropOp34
 70
     0
102
RTVSPost2010Prop35
280
     0
102
RTVSPost2010PropOp35
 70
     0
102
RTVSPost2010Prop36
280
     0
102
RTVSPost2010PropOp36
 70
     0
102
RTVSPost2010Prop37
 90
       50
102
RTVSPost2010PropOp37
 70
     0
102
RTVSPost2010Prop38
140
0.0
102
RTVSPost2010PropOp38
 70
     0
102
RTVSPost2010Prop39
140
1.0
102
RTVSPost2010PropOp39
 70
     0
102
RTVSPost2010Prop40
 90
        0
102
RTVSPost2010PropOp40
 70
     0
102
RTVSPost2010Prop41ColorIndex
 90
       18
102
RTVSPost2010Prop41ColorRGB
 90
        0
102
RTVSPost2010PropOp41
 70
     0
102
RTVSPost2010Prop42
 90
       50
102
RTVSPost2010PropOp42
 70
     0
102
RTVSPost2010Prop43
 90
        3
102
RTVSPost2010PropOp43
 70
     0
102
RTVSPost2010Prop44ColorIndex
 90
        5
102
RTVSPost2010Prop44ColorRGB
 90
      255
102
RTVSPost2010PropOp44
 70
     0
102
RTVSPost2010Prop45
280
     0
102
RTVSPost2010PropOp45
 70
     0
102
RTVSPost2010Prop46
 90
       50
102
RTVSPost2010PropOp46
 70
     0
102
RTVSPost2010Prop47
 90
       50
102
RTVSPost2010PropOp47
 70
     0
102
RTVSPost2010Prop48
 90
       50
102
RTVSPost2010PropOp48
 70
     0
102
RTVSPost2010Prop49
280
     0
102
RTVSPost2010PropOp49
 70
     0
102
RTVSPost2010Prop50
 90
       50
102
RTVSPost2010PropOp50
 70
     0
102
RTVSPost2010Prop51ColorIndex
 90
      256
102
RTVSPost2010Prop51ColorRGB
 90
-16777216
102
RTVSPost2010PropOp51
 70
     0
102
RTVSPost2010Prop52
140
1.0
102
RTVSPost2010PropOp52
 70
     0
102
RTVSPost2010Prop53
 90
        2
102
RTVSPost2010PropOp53
 70
     0
102
RTVSPost2010Prop54
  1
strokes_ogs.tif
102
RTVSPost2010PropOp54
 70
     0
102
RTVSPost2010Prop55
280
     0
102
RTVSPost2010PropOp55
 70
     0
102
RTVSPost2010Prop56
140
1.0
102
RTVSPost2010PropOp56
 70
     0
102
RTVSPost2010Prop57
140
1.0
102
RTVSPost2010PropOp57
 70
     0
  0
XRECORD
  5
46F
102
{ACAD_REACTORS
330
46E
102
}
330
46E
100
AcDbXrecord
280
     1
102
RTVSPost2010Prop28
280
     0
102
RTVSPost2010PropOp28
 70
     1
102
RTVSPost2010Prop29
280
     1
102
RTVSPost2010PropOp29
 70
     1
102
RTVSPost2010Prop30
280
     1
102
RTVSPost2010PropOp30
 70
     1
102
RTVSPost2010Prop31
280
     0
102
RTVSPost2010PropOp31
 70
     1
102
RTVSPost2010Prop32
280
     0
102
RTVSPost2010PropOp32
 70
     1
102
RTVSPost2010Prop33
280
     0
102
RTVSPost2010PropOp33
 70
     1
102
RTVSPost2010Prop34
280
     0
102
RTVSPost2010PropOp34
 70
     1
102
RTVSPost2010Prop35
280
     0
102
RTVSPost2010PropOp35
 70
     1
102
RTVSPost2010Prop36
280
     0
102
RTVSPost2010PropOp36
 70
     1
102
RTVSPost2010Prop37
 90
       50
102
RTVSPost2010PropOp37
 70
     1
102
RTVSPost2010Prop38
140
0.0
102
RTVSPost2010PropOp38
 70
     1
102
RTVSPost2010Prop39
140
1.0
102
RTVSPost2010PropOp39
 70
     1
102
RTVSPost2010Prop40
 90
        0
102
RTVSPost2010PropOp40
 70
     1
102
RTVSPost2010Prop41ColorIndex
 90
       18
102
RTVSPost2010Prop41ColorRGB
 90
        0
102
RTVSPost2010PropOp41
 70
     1
102
RTVSPost2010Prop42
 90
       50
102
RTVSPost2010PropOp42
 70
     1
102
RTVSPost2010Prop43
 90
        3
102
RTVSPost2010PropOp43
 70
     1
102
RTVSPost2010Prop44ColorIndex
 90
        5
102
RTVSPost2010Prop44ColorRGB
 90
      255
102
RTVSPost2010PropOp44
 70
     1
102
RTVSPost2010Prop45
280
     0
102
RTVSPost2010PropOp45
 70
     1
102
RTVSPost2010Prop46
 90
       50
102
RTVSPost2010PropOp46
 70
     1
102
RTVSPost2010Prop47
 90
       50
102
RTVSPost2010PropOp47
 70
     1
102
RTVSPost2010Prop48
 90
       50
102
RTVSPost2010PropOp48
 70
     1
102
RTVSPost2010Prop49
280
     0
102
RTVSPost2010PropOp49
 70
     1
102
RTVSPost2010Prop50
 90
       50
102
RTVSPost2010PropOp50
 70
     1
102
RTVSPost2010Prop51ColorIndex
 90
      256
102
RTVSPost2010Prop51ColorRGB
 90
-16777216
102
RTVSPost2010PropOp51
 70
     0
102
RTVSPost2010Prop52
140
1.0
102
RTVSPost2010PropOp52
 70
     0
102
RTVSPost2010Prop53
 90
        2
102
RTVSPost2010PropOp53
 70
     1
102
RTVSPost2010Prop54
  1
strokes_ogs.tif
102
RTVSPost2010PropOp54
 70
     1
102
RTVSPost2010Prop55
280
     0
102
RTVSPost2010PropOp55
 70
     1
102
RTVSPost2010Prop56
140
1.0
102
RTVSPost2010PropOp56
 70
     1
102
RTVSPost2010Prop57
140
1.0
102
RTVSPost2010PropOp57
 70
     1
  0
XRECORD
  5
453
102
{ACAD_REACTORS
330
452
102
}
330
452
100
AcDbXrecord
280
     1
102
RTVSPost2010Prop28
280
     0
102
RTVSPost2010PropOp28
 70
     1
102
RTVSPost2010Prop29
280
     1
102
RTVSPost2010PropOp29
 70
     1
102
RTVSPost2010Prop30
280
     1
102
RTVSPost2010PropOp30
 70
     1
102
RTVSPost2010Prop31
280
     0
102
RTVSPost2010PropOp31
 70
     1
102
RTVSPost2010Prop32
280
     0
102
RTVSPost2010PropOp32
 70
     1
102
RTVSPost2010Prop33
280
     0
102
RTVSPost2010PropOp33
 70
     1
102
RTVSPost2010Prop34
280
     0
102
RTVSPost2010PropOp34
 70
     1
102
RTVSPost2010Prop35
280
     0
102
RTVSPost2010PropOp35
 70
     1
102
RTVSPost2010Prop36
280
     0
102
RTVSPost2010PropOp36
 70
     1
102
RTVSPost2010Prop37
 90
       50
102
RTVSPost2010PropOp37
 70
     1
102
RTVSPost2010Prop38
140
0.0
102
RTVSPost2010PropOp38
 70
     1
102
RTVSPost2010Prop39
140
1.0
102
RTVSPost2010PropOp39
 70
     1
102
RTVSPost2010Prop40
 90
        0
102
RTVSPost2010PropOp40
 70
     1
102
RTVSPost2010Prop41ColorIndex
 90
       18
102
RTVSPost2010Prop41ColorRGB
 90
        0
102
RTVSPost2010PropOp41
 70
     1
102
RTVSPost2010Prop42
 90
       50
102
RTVSPost2010PropOp42
 70
     1
102
RTVSPost2010Prop43
 90
        3
102
RTVSPost2010PropOp43
 70
     1
102
RTVSPost2010Prop44ColorIndex
 90
        5
102
RTVSPost2010Prop44ColorRGB
 90
      255
102
RTVSPost2010PropOp44
 70
     1
102
RTVSPost2010Prop45
280
     0
102
RTVSPost2010PropOp45
 70
     1
102
RTVSPost2010Prop46
 90
       50
102
RTVSPost2010PropOp46
 70
     1
102
RTVSPost2010Prop47
 90
       50
102
RTVSPost2010PropOp47
 70
     1
102
RTVSPost2010Prop48
 90
       50
102
RTVSPost2010PropOp48
 70
     1
102
RTVSPost2010Prop49
280
     0
102
RTVSPost2010PropOp49
 70
     1
102
RTVSPost2010Prop50
 90
       50
102
RTVSPost2010PropOp50
 70
     1
102
RTVSPost2010Prop51ColorIndex
 90
      256
102
RTVSPost2010Prop51ColorRGB
 90
-16777216
102
RTVSPost2010PropOp51
 70
     0
102
RTVSPost2010Prop52
140
1.0
102
RTVSPost2010PropOp52
 70
     0
102
RTVSPost2010Prop53
 90
        2
102
RTVSPost2010PropOp53
 70
     1
102
RTVSPost2010Prop54
  1
strokes_ogs.tif
102
RTVSPost2010PropOp54
 70
     1
102
RTVSPost2010Prop55
280
     0
102
RTVSPost2010PropOp55
 70
     1
102
RTVSPost2010Prop56
140
1.0
102
RTVSPost2010PropOp56
 70
     1
102
RTVSPost2010Prop57
140
1.0
102
RTVSPost2010PropOp57
 70
     1
  0
XRECORD
  5
455
102
{ACAD_REACTORS
330
454
102
}
330
454
100
AcDbXrecord
280
     1
102
RTVSPost2010Prop28
280
     0
102
RTVSPost2010PropOp28
 70
     1
102
RTVSPost2010Prop29
280
     1
102
RTVSPost2010PropOp29
 70
     1
102
RTVSPost2010Prop30
280
     1
102
RTVSPost2010PropOp30
 70
     1
102
RTVSPost2010Prop31
280
     0
102
RTVSPost2010PropOp31
 70
     1
102
RTVSPost2010Prop32
280
     0
102
RTVSPost2010PropOp32
 70
     1
102
RTVSPost2010Prop33
280
     0
102
RTVSPost2010PropOp33
 70
     1
102
RTVSPost2010Prop34
280
     0
102
RTVSPost2010PropOp34
 70
     1
102
RTVSPost2010Prop35
280
     0
102
RTVSPost2010PropOp35
 70
     1
102
RTVSPost2010Prop36
280
     0
102
RTVSPost2010PropOp36
 70
     1
102
RTVSPost2010Prop37
 90
       50
102
RTVSPost2010PropOp37
 70
     1
102
RTVSPost2010Prop38
140
0.0
102
RTVSPost2010PropOp38
 70
     1
102
RTVSPost2010Prop39
140
1.0
102
RTVSPost2010PropOp39
 70
     1
102
RTVSPost2010Prop40
 90
        0
102
RTVSPost2010PropOp40
 70
     1
102
RTVSPost2010Prop41ColorIndex
 90
       18
102
RTVSPost2010Prop41ColorRGB
 90
        0
102
RTVSPost2010PropOp41
 70
     1
102
RTVSPost2010Prop42
 90
       50
102
RTVSPost2010PropOp42
 70
     1
102
RTVSPost2010Prop43
 90
        3
102
RTVSPost2010PropOp43
 70
     1
102
RTVSPost2010Prop44ColorIndex
 90
        5
102
RTVSPost2010Prop44ColorRGB
 90
      255
102
RTVSPost2010PropOp44
 70
     1
102
RTVSPost2010Prop45
280
     0
102
RTVSPost2010PropOp45
 70
     1
102
RTVSPost2010Prop46
 90
       50
102
RTVSPost2010PropOp46
 70
     1
102
RTVSPost2010Prop47
 90
       50
102
RTVSPost2010PropOp47
 70
     1
102
RTVSPost2010Prop48
 90
       50
102
RTVSPost2010PropOp48
 70
     1
102
RTVSPost2010Prop49
280
     0
102
RTVSPost2010PropOp49
 70
     1
102
RTVSPost2010Prop50
 90
       50
102
RTVSPost2010PropOp50
 70
     1
102
RTVSPost2010Prop51ColorIndex
 90
      256
102
RTVSPost2010Prop51ColorRGB
 90
-16777216
102
RTVSPost2010PropOp51
 70
     0
102
RTVSPost2010Prop52
140
1.0
102
RTVSPost2010PropOp52
 70
     0
102
RTVSPost2010Prop53
 90
        2
102
RTVSPost2010PropOp53
 70
     1
102
RTVSPost2010Prop54
  1
strokes_ogs.tif
102
RTVSPost2010PropOp54
 70
     1
102
RTVSPost2010Prop55
280
     0
102
RTVSPost2010PropOp55
 70
     1
102
RTVSPost2010Prop56
140
1.0
102
RTVSPost2010PropOp56
 70
     1
102
RTVSPost2010Prop57
140
1.0
102
RTVSPost2010PropOp57
 70
     1
  0
XRECORD
  5
457
102
{ACAD_REACTORS
330
456
102
}
330
456
100
AcDbXrecord
280
     1
102
RTVSPost2010Prop28
280
     0
102
RTVSPost2010PropOp28
 70
     1
102
RTVSPost2010Prop29
280
     1
102
RTVSPost2010PropOp29
 70
     1
102
RTVSPost2010Prop30
280
     1
102
RTVSPost2010PropOp30
 70
     1
102
RTVSPost2010Prop31
280
     0
102
RTVSPost2010PropOp31
 70
     1
102
RTVSPost2010Prop32
280
     0
102
RTVSPost2010PropOp32
 70
     1
102
RTVSPost2010Prop33
280
     0
102
RTVSPost2010PropOp33
 70
     1
102
RTVSPost2010Prop34
280
     0
102
RTVSPost2010PropOp34
 70
     1
102
RTVSPost2010Prop35
280
     0
102
RTVSPost2010PropOp35
 70
     1
102
RTVSPost2010Prop36
280
     0
102
RTVSPost2010PropOp36
 70
     1
102
RTVSPost2010Prop37
 90
       50
102
RTVSPost2010PropOp37
 70
     1
102
RTVSPost2010Prop38
140
0.0
102
RTVSPost2010PropOp38
 70
     1
102
RTVSPost2010Prop39
140
1.0
102
RTVSPost2010PropOp39
 70
     1
102
RTVSPost2010Prop40
 90
        0
102
RTVSPost2010PropOp40
 70
     1
102
RTVSPost2010Prop41ColorIndex
 90
       18
102
RTVSPost2010Prop41ColorRGB
 90
        0
102
RTVSPost2010PropOp41
 70
     1
102
RTVSPost2010Prop42
 90
       50
102
RTVSPost2010PropOp42
 70
     1
102
RTVSPost2010Prop43
 90
        3
102
RTVSPost2010PropOp43
 70
     1
102
RTVSPost2010Prop44ColorIndex
 90
        5
102
RTVSPost2010Prop44ColorRGB
 90
      255
102
RTVSPost2010PropOp44
 70
     1
102
RTVSPost2010Prop45
280
     0
102
RTVSPost2010PropOp45
 70
     1
102
RTVSPost2010Prop46
 90
       50
102
RTVSPost2010PropOp46
 70
     1
102
RTVSPost2010Prop47
 90
       50
102
RTVSPost2010PropOp47
 70
     1
102
RTVSPost2010Prop48
 90
       50
102
RTVSPost2010PropOp48
 70
     1
102
RTVSPost2010Prop49
280
     0
102
RTVSPost2010PropOp49
 70
     1
102
RTVSPost2010Prop50
 90
       50
102
RTVSPost2010PropOp50
 70
     1
102
RTVSPost2010Prop51ColorIndex
 90
      256
102
RTVSPost2010Prop51ColorRGB
 90
-16777216
102
RTVSPost2010PropOp51
 70
     0
102
RTVSPost2010Prop52
140
1.0
102
RTVSPost2010PropOp52
 70
     0
102
RTVSPost2010Prop53
 90
        2
102
RTVSPost2010PropOp53
 70
     1
102
RTVSPost2010Prop54
  1
strokes_ogs.tif
102
RTVSPost2010PropOp54
 70
     1
102
RTVSPost2010Prop55
280
     0
102
RTVSPost2010PropOp55
 70
     1
102
RTVSPost2010Prop56
140
1.0
102
RTVSPost2010PropOp56
 70
     1
102
RTVSPost2010Prop57
140
1.0
102
RTVSPost2010PropOp57
 70
     1
  0
XRECORD
  5
459
102
{ACAD_REACTORS
330
458
102
}
330
458
100
AcDbXrecord
280
     1
102
RTVSPost2010Prop28
280
     0
102
RTVSPost2010PropOp28
 70
     1
102
RTVSPost2010Prop29
280
     1
102
RTVSPost2010PropOp29
 70
     1
102
RTVSPost2010Prop30
280
     1
102
RTVSPost2010PropOp30
 70
     1
102
RTVSPost2010Prop31
280
     0
102
RTVSPost2010PropOp31
 70
     1
102
RTVSPost2010Prop32
280
     0
102
RTVSPost2010PropOp32
 70
     1
102
RTVSPost2010Prop33
280
     0
102
RTVSPost2010PropOp33
 70
     1
102
RTVSPost2010Prop34
280
     0
102
RTVSPost2010PropOp34
 70
     1
102
RTVSPost2010Prop35
280
     0
102
RTVSPost2010PropOp35
 70
     1
102
RTVSPost2010Prop36
280
     0
102
RTVSPost2010PropOp36
 70
     1
102
RTVSPost2010Prop37
 90
       50
102
RTVSPost2010PropOp37
 70
     1
102
RTVSPost2010Prop38
140
0.0
102
RTVSPost2010PropOp38
 70
     1
102
RTVSPost2010Prop39
140
1.0
102
RTVSPost2010PropOp39
 70
     1
102
RTVSPost2010Prop40
 90
        0
102
RTVSPost2010PropOp40
 70
     1
102
RTVSPost2010Prop41ColorIndex
 90
       18
102
RTVSPost2010Prop41ColorRGB
 90
        0
102
RTVSPost2010PropOp41
 70
     1
102
RTVSPost2010Prop42
 90
       50
102
RTVSPost2010PropOp42
 70
     1
102
RTVSPost2010Prop43
 90
        3
102
RTVSPost2010PropOp43
 70
     1
102
RTVSPost2010Prop44ColorIndex
 90
        5
102
RTVSPost2010Prop44ColorRGB
 90
      255
102
RTVSPost2010PropOp44
 70
     1
102
RTVSPost2010Prop45
280
     0
102
RTVSPost2010PropOp45
 70
     1
102
RTVSPost2010Prop46
 90
       50
102
RTVSPost2010PropOp46
 70
     1
102
RTVSPost2010Prop47
 90
       50
102
RTVSPost2010PropOp47
 70
     1
102
RTVSPost2010Prop48
 90
       50
102
RTVSPost2010PropOp48
 70
     1
102
RTVSPost2010Prop49
280
     0
102
RTVSPost2010PropOp49
 70
     1
102
RTVSPost2010Prop50
 90
       50
102
RTVSPost2010PropOp50
 70
     1
102
RTVSPost2010Prop51ColorIndex
 90
      256
102
RTVSPost2010Prop51ColorRGB
 90
-16777216
102
RTVSPost2010PropOp51
 70
     0
102
RTVSPost2010Prop52
140
1.0
102
RTVSPost2010PropOp52
 70
     0
102
RTVSPost2010Prop53
 90
        2
102
RTVSPost2010PropOp53
 70
     1
102
RTVSPost2010Prop54
  1
strokes_ogs.tif
102
RTVSPost2010PropOp54
 70
     1
102
RTVSPost2010Prop55
280
     0
102
RTVSPost2010PropOp55
 70
     1
102
RTVSPost2010Prop56
140
1.0
102
RTVSPost2010PropOp56
 70
     1
102
RTVSPost2010Prop57
140
1.0
102
RTVSPost2010PropOp57
 70
     1
  0
XRECORD
  5
45F
102
{ACAD_REACTORS
330
45E
102
}
330
45E
100
AcDbXrecord
280
     1
102
RTVSPost2010Prop28
280
     0
102
RTVSPost2010PropOp28
 70
     1
102
RTVSPost2010Prop29
280
     1
102
RTVSPost2010PropOp29
 70
     1
102
RTVSPost2010Prop30
280
     1
102
RTVSPost2010PropOp30
 70
     1
102
RTVSPost2010Prop31
280
     0
102
RTVSPost2010PropOp31
 70
     1
102
RTVSPost2010Prop32
280
     0
102
RTVSPost2010PropOp32
 70
     1
102
RTVSPost2010Prop33
280
     0
102
RTVSPost2010PropOp33
 70
     1
102
RTVSPost2010Prop34
280
     0
102
RTVSPost2010PropOp34
 70
     1
102
RTVSPost2010Prop35
280
     0
102
RTVSPost2010PropOp35
 70
     1
102
RTVSPost2010Prop36
280
     0
102
RTVSPost2010PropOp36
 70
     1
102
RTVSPost2010Prop37
 90
       50
102
RTVSPost2010PropOp37
 70
     1
102
RTVSPost2010Prop38
140
0.0
102
RTVSPost2010PropOp38
 70
     1
102
RTVSPost2010Prop39
140
1.0
102
RTVSPost2010PropOp39
 70
     1
102
RTVSPost2010Prop40
 90
        0
102
RTVSPost2010PropOp40
 70
     1
102
RTVSPost2010Prop41ColorIndex
 90
       18
102
RTVSPost2010Prop41ColorRGB
 90
        0
102
RTVSPost2010PropOp41
 70
     1
102
RTVSPost2010Prop42
 90
       50
102
RTVSPost2010PropOp42
 70
     1
102
RTVSPost2010Prop43
 90
        3
102
RTVSPost2010PropOp43
 70
     1
102
RTVSPost2010Prop44ColorIndex
 90
        5
102
RTVSPost2010Prop44ColorRGB
 90
      255
102
RTVSPost2010PropOp44
 70
     1
102
RTVSPost2010Prop45
280
     0
102
RTVSPost2010PropOp45
 70
     1
102
RTVSPost2010Prop46
 90
       50
102
RTVSPost2010PropOp46
 70
     1
102
RTVSPost2010Prop47
 90
       50
102
RTVSPost2010PropOp47
 70
     1
102
RTVSPost2010Prop48
 90
       50
102
RTVSPost2010PropOp48
 70
     1
102
RTVSPost2010Prop49
280
     0
102
RTVSPost2010PropOp49
 70
     1
102
RTVSPost2010Prop50
 90
       50
102
RTVSPost2010PropOp50
 70
     1
102
RTVSPost2010Prop51ColorIndex
 90
      256
102
RTVSPost2010Prop51ColorRGB
 90
-16777216
102
RTVSPost2010PropOp51
 70
     0
102
RTVSPost2010Prop52
140
1.0
102
RTVSPost2010PropOp52
 70
     0
102
RTVSPost2010Prop53
 90
        2
102
RTVSPost2010PropOp53
 70
     1
102
RTVSPost2010Prop54
  1
strokes_ogs.tif
102
RTVSPost2010PropOp54
 70
     1
102
RTVSPost2010Prop55
280
     0
102
RTVSPost2010PropOp55
 70
     1
102
RTVSPost2010Prop56
140
1.0
102
RTVSPost2010PropOp56
 70
     1
102
RTVSPost2010Prop57
140
1.0
102
RTVSPost2010PropOp57
 70
     1
  0
XRECORD
  5
473
102
{ACAD_REACTORS
330
472
102
}
330
472
100
AcDbXrecord
280
     1
102
RTVSPost2010Prop28
280
     0
102
RTVSPost2010PropOp28
 70
     0
102
RTVSPost2010Prop29
280
     1
102
RTVSPost2010PropOp29
 70
     0
102
RTVSPost2010Prop30
280
     1
102
RTVSPost2010PropOp30
 70
     0
102
RTVSPost2010Prop31
280
     0
102
RTVSPost2010PropOp31
 70
     0
102
RTVSPost2010Prop32
280
     0
102
RTVSPost2010PropOp32
 70
     0
102
RTVSPost2010Prop33
280
     0
102
RTVSPost2010PropOp33
 70
     0
102
RTVSPost2010Prop34
280
     0
102
RTVSPost2010PropOp34
 70
     0
102
RTVSPost2010Prop35
280
     0
102
RTVSPost2010PropOp35
 70
     0
102
RTVSPost2010Prop36
280
     0
102
RTVSPost2010PropOp36
 70
     0
102
RTVSPost2010Prop37
 90
       50
102
RTVSPost2010PropOp37
 70
     0
102
RTVSPost2010Prop38
140
0.0
102
RTVSPost2010PropOp38
 70
     0
102
RTVSPost2010Prop39
140
1.0
102
RTVSPost2010PropOp39
 70
     0
102
RTVSPost2010Prop40
 90
        0
102
RTVSPost2010PropOp40
 70
     0
102
RTVSPost2010Prop41ColorIndex
 90
       18
102
RTVSPost2010Prop41ColorRGB
 90
        0
102
RTVSPost2010PropOp41
 70
     0
102
RTVSPost2010Prop42
 90
       50
102
RTVSPost2010PropOp42
 70
     0
102
RTVSPost2010Prop43
 90
        3
102
RTVSPost2010PropOp43
 70
     0
102
RTVSPost2010Prop44ColorIndex
 90
        5
102
RTVSPost2010Prop44ColorRGB
 90
      255
102
RTVSPost2010PropOp44
 70
     0
102
RTVSPost2010Prop45
280
     0
102
RTVSPost2010PropOp45
 70
     0
102
RTVSPost2010Prop46
 90
       50
102
RTVSPost2010PropOp46
 70
     0
102
RTVSPost2010Prop47
 90
       50
102
RTVSPost2010PropOp47
 70
     0
102
RTVSPost2010Prop48
 90
       50
102
RTVSPost2010PropOp48
 70
     0
102
RTVSPost2010Prop49
280
     0
102
RTVSPost2010PropOp49
 70
     0
102
RTVSPost2010Prop50
 90
       50
102
RTVSPost2010PropOp50
 70
     0
102
RTVSPost2010Prop51ColorIndex
 90
      256
102
RTVSPost2010Prop51ColorRGB
 90
-16777216
102
RTVSPost2010PropOp51
 70
     0
102
RTVSPost2010Prop52
140
1.0
102
RTVSPost2010PropOp52
 70
     0
102
RTVSPost2010Prop53
 90
        2
102
RTVSPost2010PropOp53
 70
     0
102
RTVSPost2010Prop54
  1
strokes_ogs.tif
102
RTVSPost2010PropOp54
 70
     0
102
RTVSPost2010Prop55
280
     0
102
RTVSPost2010PropOp55
 70
     0
102
RTVSPost2010Prop56
140
1.0
102
RTVSPost2010PropOp56
 70
     0
102
RTVSPost2010Prop57
140
1.0
102
RTVSPost2010PropOp57
 70
     0
  0
XRECORD
  5
46D
102
{ACAD_REACTORS
330
46C
102
}
330
46C
100
AcDbXrecord
280
     1
102
RTVSPost2010Prop28
280
     0
102
RTVSPost2010PropOp28
 70
     1
102
RTVSPost2010Prop29
280
     1
102
RTVSPost2010PropOp29
 70
     1
102
RTVSPost2010Prop30
280
     1
102
RTVSPost2010PropOp30
 70
     1
102
RTVSPost2010Prop31
280
     0
102
RTVSPost2010PropOp31
 70
     1
102
RTVSPost2010Prop32
280
     0
102
RTVSPost2010PropOp32
 70
     1
102
RTVSPost2010Prop33
280
     0
102
RTVSPost2010PropOp33
 70
     1
102
RTVSPost2010Prop34
280
     0
102
RTVSPost2010PropOp34
 70
     1
102
RTVSPost2010Prop35
280
     0
102
RTVSPost2010PropOp35
 70
     1
102
RTVSPost2010Prop36
280
     0
102
RTVSPost2010PropOp36
 70
     1
102
RTVSPost2010Prop37
 90
       50
102
RTVSPost2010PropOp37
 70
     1
102
RTVSPost2010Prop38
140
0.0
102
RTVSPost2010PropOp38
 70
     1
102
RTVSPost2010Prop39
140
1.0
102
RTVSPost2010PropOp39
 70
     1
102
RTVSPost2010Prop40
 90
        0
102
RTVSPost2010PropOp40
 70
     1
102
RTVSPost2010Prop41ColorIndex
 90
       18
102
RTVSPost2010Prop41ColorRGB
 90
        0
102
RTVSPost2010PropOp41
 70
     1
102
RTVSPost2010Prop42
 90
       50
102
RTVSPost2010PropOp42
 70
     1
102
RTVSPost2010Prop43
 90
        3
102
RTVSPost2010PropOp43
 70
     1
102
RTVSPost2010Prop44ColorIndex
 90
        5
102
RTVSPost2010Prop44ColorRGB
 90
      255
102
RTVSPost2010PropOp44
 70
     1
102
RTVSPost2010Prop45
280
     0
102
RTVSPost2010PropOp45
 70
     1
102
RTVSPost2010Prop46
 90
       50
102
RTVSPost2010PropOp46
 70
     1
102
RTVSPost2010Prop47
 90
       50
102
RTVSPost2010PropOp47
 70
     1
102
RTVSPost2010Prop48
 90
       50
102
RTVSPost2010PropOp48
 70
     1
102
RTVSPost2010Prop49
280
     0
102
RTVSPost2010PropOp49
 70
     1
102
RTVSPost2010Prop50
 90
       50
102
RTVSPost2010PropOp50
 70
     1
102
RTVSPost2010Prop51ColorIndex
 90
      256
102
RTVSPost2010Prop51ColorRGB
 90
-16777216
102
RTVSPost2010PropOp51
 70
     0
102
RTVSPost2010Prop52
140
1.0
102
RTVSPost2010PropOp52
 70
     0
102
RTVSPost2010Prop53
 90
        2
102
RTVSPost2010PropOp53
 70
     1
102
RTVSPost2010Prop54
  1
strokes_ogs.tif
102
RTVSPost2010PropOp54
 70
     1
102
RTVSPost2010Prop55
280
     0
102
RTVSPost2010PropOp55
 70
     1
102
RTVSPost2010Prop56
140
1.0
102
RTVSPost2010PropOp56
 70
     1
102
RTVSPost2010Prop57
140
1.0
102
RTVSPost2010PropOp57
 70
     1
  0
XRECORD
  5
475
102
{ACAD_REACTORS
330
474
102
}
330
474
100
AcDbXrecord
280
     1
102
RTVSPost2010Prop28
280
     0
102
RTVSPost2010PropOp28
 70
     0
102
RTVSPost2010Prop29
280
     1
102
RTVSPost2010PropOp29
 70
     0
102
RTVSPost2010Prop30
280
     1
102
RTVSPost2010PropOp30
 70
     0
102
RTVSPost2010Prop31
280
     0
102
RTVSPost2010PropOp31
 70
     0
102
RTVSPost2010Prop32
280
     0
102
RTVSPost2010PropOp32
 70
     0
102
RTVSPost2010Prop33
280
     0
102
RTVSPost2010PropOp33
 70
     0
102
RTVSPost2010Prop34
280
     0
102
RTVSPost2010PropOp34
 70
     0
102
RTVSPost2010Prop35
280
     0
102
RTVSPost2010PropOp35
 70
     0
102
RTVSPost2010Prop36
280
     0
102
RTVSPost2010PropOp36
 70
     0
102
RTVSPost2010Prop37
 90
       50
102
RTVSPost2010PropOp37
 70
     0
102
RTVSPost2010Prop38
140
0.0
102
RTVSPost2010PropOp38
 70
     0
102
RTVSPost2010Prop39
140
1.0
102
RTVSPost2010PropOp39
 70
     0
102
RTVSPost2010Prop40
 90
        0
102
RTVSPost2010PropOp40
 70
     0
102
RTVSPost2010Prop41ColorIndex
 90
       18
102
RTVSPost2010Prop41ColorRGB
 90
        0
102
RTVSPost2010PropOp41
 70
     0
102
RTVSPost2010Prop42
 90
       50
102
RTVSPost2010PropOp42
 70
     0
102
RTVSPost2010Prop43
 90
        3
102
RTVSPost2010PropOp43
 70
     0
102
RTVSPost2010Prop44ColorIndex
 90
        5
102
RTVSPost2010Prop44ColorRGB
 90
      255
102
RTVSPost2010PropOp44
 70
     0
102
RTVSPost2010Prop45
280
     0
102
RTVSPost2010PropOp45
 70
     0
102
RTVSPost2010Prop46
 90
       50
102
RTVSPost2010PropOp46
 70
     0
102
RTVSPost2010Prop47
 90
       50
102
RTVSPost2010PropOp47
 70
     0
102
RTVSPost2010Prop48
 90
       50
102
RTVSPost2010PropOp48
 70
     0
102
RTVSPost2010Prop49
280
     0
102
RTVSPost2010PropOp49
 70
     0
102
RTVSPost2010Prop50
 90
       50
102
RTVSPost2010PropOp50
 70
     0
102
RTVSPost2010Prop51ColorIndex
 90
      256
102
RTVSPost2010Prop51ColorRGB
 90
-16777216
102
RTVSPost2010PropOp51
 70
     0
102
RTVSPost2010Prop52
140
1.0
102
RTVSPost2010PropOp52
 70
     0
102
RTVSPost2010Prop53
 90
        2
102
RTVSPost2010PropOp53
 70
     0
102
RTVSPost2010Prop54
  1
strokes_ogs.tif
102
RTVSPost2010PropOp54
 70
     0
102
RTVSPost2010Prop55
280
     0
102
RTVSPost2010PropOp55
 70
     0
102
RTVSPost2010Prop56
140
1.0
102
RTVSPost2010PropOp56
 70
     0
102
RTVSPost2010Prop57
140
1.0
102
RTVSPost2010PropOp57
 70
     0
  0
XRECORD
  5
463
102
{ACAD_REACTORS
330
462
102
}
330
462
100
AcDbXrecord
280
     1
102
RTVSPost2010Prop28
280
     0
102
RTVSPost2010PropOp28
 70
     1
102
RTVSPost2010Prop29
280
     1
102
RTVSPost2010PropOp29
 70
     1
102
RTVSPost2010Prop30
280
     1
102
RTVSPost2010PropOp30
 70
     1
102
RTVSPost2010Prop31
280
     0
102
RTVSPost2010PropOp31
 70
     1
102
RTVSPost2010Prop32
280
     0
102
RTVSPost2010PropOp32
 70
     1
102
RTVSPost2010Prop33
280
     0
102
RTVSPost2010PropOp33
 70
     1
102
RTVSPost2010Prop34
280
     0
102
RTVSPost2010PropOp34
 70
     1
102
RTVSPost2010Prop35
280
     0
102
RTVSPost2010PropOp35
 70
     1
102
RTVSPost2010Prop36
280
     0
102
RTVSPost2010PropOp36
 70
     1
102
RTVSPost2010Prop37
 90
       50
102
RTVSPost2010PropOp37
 70
     1
102
RTVSPost2010Prop38
140
0.0
102
RTVSPost2010PropOp38
 70
     1
102
RTVSPost2010Prop39
140
1.0
102
RTVSPost2010PropOp39
 70
     1
102
RTVSPost2010Prop40
 90
        0
102
RTVSPost2010PropOp40
 70
     1
102
RTVSPost2010Prop41ColorIndex
 90
       18
102
RTVSPost2010Prop41ColorRGB
 90
        0
102
RTVSPost2010PropOp41
 70
     1
102
RTVSPost2010Prop42
 90
       50
102
RTVSPost2010PropOp42
 70
     1
102
RTVSPost2010Prop43
 90
        3
102
RTVSPost2010PropOp43
 70
     1
102
RTVSPost2010Prop44ColorIndex
 90
        5
102
RTVSPost2010Prop44ColorRGB
 90
      255
102
RTVSPost2010PropOp44
 70
     1
102
RTVSPost2010Prop45
280
     0
102
RTVSPost2010PropOp45
 70
     1
102
RTVSPost2010Prop46
 90
       50
102
RTVSPost2010PropOp46
 70
     1
102
RTVSPost2010Prop47
 90
       50
102
RTVSPost2010PropOp47
 70
     1
102
RTVSPost2010Prop48
 90
       50
102
RTVSPost2010PropOp48
 70
     1
102
RTVSPost2010Prop49
280
     0
102
RTVSPost2010PropOp49
 70
     1
102
RTVSPost2010Prop50
 90
       50
102
RTVSPost2010PropOp50
 70
     1
102
RTVSPost2010Prop51ColorIndex
 90
      256
102
RTVSPost2010Prop51ColorRGB
 90
-16777216
102
RTVSPost2010PropOp51
 70
     0
102
RTVSPost2010Prop52
140
1.0
102
RTVSPost2010PropOp52
 70
     0
102
RTVSPost2010Prop53
 90
        2
102
RTVSPost2010PropOp53
 70
     1
102
RTVSPost2010Prop54
  1
strokes_ogs.tif
102
RTVSPost2010PropOp54
 70
     1
102
RTVSPost2010Prop55
280
     0
102
RTVSPost2010PropOp55
 70
     1
102
RTVSPost2010Prop56
140
1.0
102
RTVSPost2010PropOp56
 70
     1
102
RTVSPost2010Prop57
140
1.0
102
RTVSPost2010PropOp57
 70
     1
  0
XRECORD
  5
481
102
{ACAD_REACTORS
330
480
102
}
330
480
100
AcDbXrecord
280
     1
102
RTVSPost2010Prop28
280
     0
102
RTVSPost2010PropOp28
 70
     1
102
RTVSPost2010Prop29
280
     1
102
RTVSPost2010PropOp29
 70
     1
102
RTVSPost2010Prop30
280
     1
102
RTVSPost2010PropOp30
 70
     1
102
RTVSPost2010Prop31
280
     0
102
RTVSPost2010PropOp31
 70
     1
102
RTVSPost2010Prop32
280
     0
102
RTVSPost2010PropOp32
 70
     1
102
RTVSPost2010Prop33
280
     0
102
RTVSPost2010PropOp33
 70
     1
102
RTVSPost2010Prop34
280
     0
102
RTVSPost2010PropOp34
 70
     1
102
RTVSPost2010Prop35
280
     0
102
RTVSPost2010PropOp35
 70
     1
102
RTVSPost2010Prop36
280
     0
102
RTVSPost2010PropOp36
 70
     1
102
RTVSPost2010Prop37
 90
       50
102
RTVSPost2010PropOp37
 70
     1
102
RTVSPost2010Prop38
140
0.0
102
RTVSPost2010PropOp38
 70
     1
102
RTVSPost2010Prop39
140
1.0
102
RTVSPost2010PropOp39
 70
     1
102
RTVSPost2010Prop40
 90
        0
102
RTVSPost2010PropOp40
 70
     1
102
RTVSPost2010Prop41ColorIndex
 90
       18
102
RTVSPost2010Prop41ColorRGB
 90
        0
102
RTVSPost2010PropOp41
 70
     1
102
RTVSPost2010Prop42
 90
       50
102
RTVSPost2010PropOp42
 70
     1
102
RTVSPost2010Prop43
 90
        3
102
RTVSPost2010PropOp43
 70
     1
102
RTVSPost2010Prop44ColorIndex
 90
        5
102
RTVSPost2010Prop44ColorRGB
 90
      255
102
RTVSPost2010PropOp44
 70
     1
102
RTVSPost2010Prop45
280
     0
102
RTVSPost2010PropOp45
 70
     1
102
RTVSPost2010Prop46
 90
       50
102
RTVSPost2010PropOp46
 70
     1
102
RTVSPost2010Prop47
 90
       50
102
RTVSPost2010PropOp47
 70
     1
102
RTVSPost2010Prop48
 90
       50
102
RTVSPost2010PropOp48
 70
     1
102
RTVSPost2010Prop49
280
     0
102
RTVSPost2010PropOp49
 70
     1
102
RTVSPost2010Prop50
 90
       50
102
RTVSPost2010PropOp50
 70
     1
102
RTVSPost2010Prop51ColorIndex
 90
      256
102
RTVSPost2010Prop51ColorRGB
 90
-16777216
102
RTVSPost2010PropOp51
 70
     0
102
RTVSPost2010Prop52
140
1.0
102
RTVSPost2010PropOp52
 70
     0
102
RTVSPost2010Prop53
 90
        2
102
RTVSPost2010PropOp53
 70
     1
102
RTVSPost2010Prop54
  1
strokes_ogs.tif
102
RTVSPost2010PropOp54
 70
     1
102
RTVSPost2010Prop55
280
     0
102
RTVSPost2010PropOp55
 70
     1
102
RTVSPost2010Prop56
140
1.0
102
RTVSPost2010PropOp56
 70
     1
102
RTVSPost2010Prop57
140
1.0
102
RTVSPost2010PropOp57
 70
     1
  0
XRECORD
  5
47F
102
{ACAD_REACTORS
330
47E
102
}
330
47E
100
AcDbXrecord
280
     1
102
RTVSPost2010Prop28
280
     0
102
RTVSPost2010PropOp28
 70
     1
102
RTVSPost2010Prop29
280
     1
102
RTVSPost2010PropOp29
 70
     1
102
RTVSPost2010Prop30
280
     1
102
RTVSPost2010PropOp30
 70
     1
102
RTVSPost2010Prop31
280
     0
102
RTVSPost2010PropOp31
 70
     1
102
RTVSPost2010Prop32
280
     0
102
RTVSPost2010PropOp32
 70
     1
102
RTVSPost2010Prop33
280
     0
102
RTVSPost2010PropOp33
 70
     1
102
RTVSPost2010Prop34
280
     0
102
RTVSPost2010PropOp34
 70
     1
102
RTVSPost2010Prop35
280
     0
102
RTVSPost2010PropOp35
 70
     1
102
RTVSPost2010Prop36
280
     0
102
RTVSPost2010PropOp36
 70
     1
102
RTVSPost2010Prop37
 90
       50
102
RTVSPost2010PropOp37
 70
     1
102
RTVSPost2010Prop38
140
0.0
102
RTVSPost2010PropOp38
 70
     1
102
RTVSPost2010Prop39
140
1.0
102
RTVSPost2010PropOp39
 70
     1
102
RTVSPost2010Prop40
 90
        0
102
RTVSPost2010PropOp40
 70
     1
102
RTVSPost2010Prop41ColorIndex
 90
       18
102
RTVSPost2010Prop41ColorRGB
 90
        0
102
RTVSPost2010PropOp41
 70
     1
102
RTVSPost2010Prop42
 90
       50
102
RTVSPost2010PropOp42
 70
     1
102
RTVSPost2010Prop43
 90
        3
102
RTVSPost2010PropOp43
 70
     1
102
RTVSPost2010Prop44ColorIndex
 90
        5
102
RTVSPost2010Prop44ColorRGB
 90
      255
102
RTVSPost2010PropOp44
 70
     1
102
RTVSPost2010Prop45
280
     0
102
RTVSPost2010PropOp45
 70
     1
102
RTVSPost2010Prop46
 90
       50
102
RTVSPost2010PropOp46
 70
     1
102
RTVSPost2010Prop47
 90
       50
102
RTVSPost2010PropOp47
 70
     1
102
RTVSPost2010Prop48
 90
       50
102
RTVSPost2010PropOp48
 70
     1
102
RTVSPost2010Prop49
280
     0
102
RTVSPost2010PropOp49
 70
     1
102
RTVSPost2010Prop50
 90
       50
102
RTVSPost2010PropOp50
 70
     1
102
RTVSPost2010Prop51ColorIndex
 90
      256
102
RTVSPost2010Prop51ColorRGB
 90
-16777216
102
RTVSPost2010PropOp51
 70
     0
102
RTVSPost2010Prop52
140
1.0
102
RTVSPost2010PropOp52
 70
     0
102
RTVSPost2010Prop53
 90
        2
102
RTVSPost2010PropOp53
 70
     1
102
RTVSPost2010Prop54
  1
strokes_ogs.tif
102
RTVSPost2010PropOp54
 70
     1
102
RTVSPost2010Prop55
280
     0
102
RTVSPost2010PropOp55
 70
     1
102
RTVSPost2010Prop56
140
1.0
102
RTVSPost2010PropOp56
 70
     1
102
RTVSPost2010Prop57
140
1.0
102
RTVSPost2010PropOp57
 70
     1
  0
XRECORD
  5
479
102
{ACAD_REACTORS
330
478
102
}
330
478
100
AcDbXrecord
280
     1
102
RTVSPost2010Prop28
280
     0
102
RTVSPost2010PropOp28
 70
     1
102
RTVSPost2010Prop29
280
     1
102
RTVSPost2010PropOp29
 70
     1
102
RTVSPost2010Prop30
280
     1
102
RTVSPost2010PropOp30
 70
     1
102
RTVSPost2010Prop31
280
     0
102
RTVSPost2010PropOp31
 70
     1
102
RTVSPost2010Prop32
280
     0
102
RTVSPost2010PropOp32
 70
     1
102
RTVSPost2010Prop33
280
     0
102
RTVSPost2010PropOp33
 70
     1
102
RTVSPost2010Prop34
280
     0
102
RTVSPost2010PropOp34
 70
     1
102
RTVSPost2010Prop35
280
     0
102
RTVSPost2010PropOp35
 70
     1
102
RTVSPost2010Prop36
280
     0
102
RTVSPost2010PropOp36
 70
     1
102
RTVSPost2010Prop37
 90
       50
102
RTVSPost2010PropOp37
 70
     1
102
RTVSPost2010Prop38
140
0.0
102
RTVSPost2010PropOp38
 70
     1
102
RTVSPost2010Prop39
140
1.0
102
RTVSPost2010PropOp39
 70
     1
102
RTVSPost2010Prop40
 90
        0
102
RTVSPost2010PropOp40
 70
     1
102
RTVSPost2010Prop41ColorIndex
 90
       18
102
RTVSPost2010Prop41ColorRGB
 90
        0
102
RTVSPost2010PropOp41
 70
     1
102
RTVSPost2010Prop42
 90
       50
102
RTVSPost2010PropOp42
 70
     1
102
RTVSPost2010Prop43
 90
        3
102
RTVSPost2010PropOp43
 70
     1
102
RTVSPost2010Prop44ColorIndex
 90
        5
102
RTVSPost2010Prop44ColorRGB
 90
      255
102
RTVSPost2010PropOp44
 70
     1
102
RTVSPost2010Prop45
280
     0
102
RTVSPost2010PropOp45
 70
     1
102
RTVSPost2010Prop46
 90
       50
102
RTVSPost2010PropOp46
 70
     1
102
RTVSPost2010Prop47
 90
       50
102
RTVSPost2010PropOp47
 70
     1
102
RTVSPost2010Prop48
 90
       50
102
RTVSPost2010PropOp48
 70
     1
102
RTVSPost2010Prop49
280
     0
102
RTVSPost2010PropOp49
 70
     1
102
RTVSPost2010Prop50
 90
       50
102
RTVSPost2010PropOp50
 70
     1
102
RTVSPost2010Prop51ColorIndex
 90
      256
102
RTVSPost2010Prop51ColorRGB
 90
-16777216
102
RTVSPost2010PropOp51
 70
     0
102
RTVSPost2010Prop52
140
1.0
102
RTVSPost2010PropOp52
 70
     0
102
RTVSPost2010Prop53
 90
        2
102
RTVSPost2010PropOp53
 70
     1
102
RTVSPost2010Prop54
  1
strokes_ogs.tif
102
RTVSPost2010PropOp54
 70
     1
102
RTVSPost2010Prop55
280
     0
102
RTVSPost2010PropOp55
 70
     1
102
RTVSPost2010Prop56
140
1.0
102
RTVSPost2010PropOp56
 70
     1
102
RTVSPost2010Prop57
140
1.0
102
RTVSPost2010PropOp57
 70
     1
  0
XRECORD
  5
47B
102
{ACAD_REACTORS
330
47A
102
}
330
47A
100
AcDbXrecord
280
     1
102
RTVSPost2010Prop28
280
     0
102
RTVSPost2010PropOp28
 70
     1
102
RTVSPost2010Prop29
280
     1
102
RTVSPost2010PropOp29
 70
     1
102
RTVSPost2010Prop30
280
     1
102
RTVSPost2010PropOp30
 70
     1
102
RTVSPost2010Prop31
280
     0
102
RTVSPost2010PropOp31
 70
     1
102
RTVSPost2010Prop32
280
     0
102
RTVSPost2010PropOp32
 70
     1
102
RTVSPost2010Prop33
280
     0
102
RTVSPost2010PropOp33
 70
     1
102
RTVSPost2010Prop34
280
     0
102
RTVSPost2010PropOp34
 70
     1
102
RTVSPost2010Prop35
280
     0
102
RTVSPost2010PropOp35
 70
     1
102
RTVSPost2010Prop36
280
     0
102
RTVSPost2010PropOp36
 70
     1
102
RTVSPost2010Prop37
 90
       50
102
RTVSPost2010PropOp37
 70
     1
102
RTVSPost2010Prop38
140
0.0
102
RTVSPost2010PropOp38
 70
     1
102
RTVSPost2010Prop39
140
1.0
102
RTVSPost2010PropOp39
 70
     1
102
RTVSPost2010Prop40
 90
        0
102
RTVSPost2010PropOp40
 70
     1
102
RTVSPost2010Prop41ColorIndex
 90
       18
102
RTVSPost2010Prop41ColorRGB
 90
        0
102
RTVSPost2010PropOp41
 70
     1
102
RTVSPost2010Prop42
 90
       50
102
RTVSPost2010PropOp42
 70
     1
102
RTVSPost2010Prop43
 90
        3
102
RTVSPost2010PropOp43
 70
     1
102
RTVSPost2010Prop44ColorIndex
 90
        5
102
RTVSPost2010Prop44ColorRGB
 90
      255
102
RTVSPost2010PropOp44
 70
     1
102
RTVSPost2010Prop45
280
     0
102
RTVSPost2010PropOp45
 70
     1
102
RTVSPost2010Prop46
 90
       50
102
RTVSPost2010PropOp46
 70
     1
102
RTVSPost2010Prop47
 90
       50
102
RTVSPost2010PropOp47
 70
     1
102
RTVSPost2010Prop48
 90
       50
102
RTVSPost2010PropOp48
 70
     1
102
RTVSPost2010Prop49
280
     0
102
RTVSPost2010PropOp49
 70
     1
102
RTVSPost2010Prop50
 90
       50
102
RTVSPost2010PropOp50
 70
     1
102
RTVSPost2010Prop51ColorIndex
 90
      256
102
RTVSPost2010Prop51ColorRGB
 90
-16777216
102
RTVSPost2010PropOp51
 70
     0
102
RTVSPost2010Prop52
140
1.0
102
RTVSPost2010PropOp52
 70
     0
102
RTVSPost2010Prop53
 90
        2
102
RTVSPost2010PropOp53
 70
     1
102
RTVSPost2010Prop54
  1
strokes_ogs.tif
102
RTVSPost2010PropOp54
 70
     1
102
RTVSPost2010Prop55
280
     0
102
RTVSPost2010PropOp55
 70
     1
102
RTVSPost2010Prop56
140
1.0
102
RTVSPost2010PropOp56
 70
     1
102
RTVSPost2010Prop57
140
1.0
102
RTVSPost2010PropOp57
 70
     1
  0
XRECORD
  5
46B
102
{ACAD_REACTORS
330
46A
102
}
330
46A
100
AcDbXrecord
280
     1
102
RTVSPost2010Prop28
280
     0
102
RTVSPost2010PropOp28
 70
     1
102
RTVSPost2010Prop29
280
     1
102
RTVSPost2010PropOp29
 70
     1
102
RTVSPost2010Prop30
280
     1
102
RTVSPost2010PropOp30
 70
     1
102
RTVSPost2010Prop31
280
     0
102
RTVSPost2010PropOp31
 70
     1
102
RTVSPost2010Prop32
280
     0
102
RTVSPost2010PropOp32
 70
     1
102
RTVSPost2010Prop33
280
     0
102
RTVSPost2010PropOp33
 70
     1
102
RTVSPost2010Prop34
280
     0
102
RTVSPost2010PropOp34
 70
     1
102
RTVSPost2010Prop35
280
     0
102
RTVSPost2010PropOp35
 70
     1
102
RTVSPost2010Prop36
280
     0
102
RTVSPost2010PropOp36
 70
     1
102
RTVSPost2010Prop37
 90
       50
102
RTVSPost2010PropOp37
 70
     1
102
RTVSPost2010Prop38
140
0.0
102
RTVSPost2010PropOp38
 70
     1
102
RTVSPost2010Prop39
140
1.0
102
RTVSPost2010PropOp39
 70
     1
102
RTVSPost2010Prop40
 90
        0
102
RTVSPost2010PropOp40
 70
     1
102
RTVSPost2010Prop41ColorIndex
 90
       18
102
RTVSPost2010Prop41ColorRGB
 90
        0
102
RTVSPost2010PropOp41
 70
     1
102
RTVSPost2010Prop42
 90
       50
102
RTVSPost2010PropOp42
 70
     1
102
RTVSPost2010Prop43
 90
        3
102
RTVSPost2010PropOp43
 70
     1
102
RTVSPost2010Prop44ColorIndex
 90
        5
102
RTVSPost2010Prop44ColorRGB
 90
      255
102
RTVSPost2010PropOp44
 70
     1
102
RTVSPost2010Prop45
280
     0
102
RTVSPost2010PropOp45
 70
     1
102
RTVSPost2010Prop46
 90
       50
102
RTVSPost2010PropOp46
 70
     1
102
RTVSPost2010Prop47
 90
       50
102
RTVSPost2010PropOp47
 70
     1
102
RTVSPost2010Prop48
 90
       50
102
RTVSPost2010PropOp48
 70
     1
102
RTVSPost2010Prop49
280
     0
102
RTVSPost2010PropOp49
 70
     1
102
RTVSPost2010Prop50
 90
       50
102
RTVSPost2010PropOp50
 70
     1
102
RTVSPost2010Prop51ColorIndex
 90
      256
102
RTVSPost2010Prop51ColorRGB
 90
-16777216
102
RTVSPost2010PropOp51
 70
     0
102
RTVSPost2010Prop52
140
1.0
102
RTVSPost2010PropOp52
 70
     0
102
RTVSPost2010Prop53
 90
        2
102
RTVSPost2010PropOp53
 70
     1
102
RTVSPost2010Prop54
  1
strokes_ogs.tif
102
RTVSPost2010PropOp54
 70
     1
102
RTVSPost2010Prop55
280
     0
102
RTVSPost2010PropOp55
 70
     1
102
RTVSPost2010Prop56
140
1.0
102
RTVSPost2010PropOp56
 70
     1
102
RTVSPost2010Prop57
140
1.0
102
RTVSPost2010PropOp57
 70
     1
  0
XRECORD
  5
45D
102
{ACAD_REACTORS
330
45C
102
}
330
45C
100
AcDbXrecord
280
     1
102
RTVSPost2010Prop28
280
     0
102
RTVSPost2010PropOp28
 70
     1
102
RTVSPost2010Prop29
280
     1
102
RTVSPost2010PropOp29
 70
     1
102
RTVSPost2010Prop30
280
     1
102
RTVSPost2010PropOp30
 70
     1
102
RTVSPost2010Prop31
280
     0
102
RTVSPost2010PropOp31
 70
     1
102
RTVSPost2010Prop32
280
     0
102
RTVSPost2010PropOp32
 70
     1
102
RTVSPost2010Prop33
280
     0
102
RTVSPost2010PropOp33
 70
     1
102
RTVSPost2010Prop34
280
     0
102
RTVSPost2010PropOp34
 70
     1
102
RTVSPost2010Prop35
280
     0
102
RTVSPost2010PropOp35
 70
     1
102
RTVSPost2010Prop36
280
     0
102
RTVSPost2010PropOp36
 70
     1
102
RTVSPost2010Prop37
 90
       50
102
RTVSPost2010PropOp37
 70
     1
102
RTVSPost2010Prop38
140
0.0
102
RTVSPost2010PropOp38
 70
     1
102
RTVSPost2010Prop39
140
1.0
102
RTVSPost2010PropOp39
 70
     1
102
RTVSPost2010Prop40
 90
        0
102
RTVSPost2010PropOp40
 70
     1
102
RTVSPost2010Prop41ColorIndex
 90
       18
102
RTVSPost2010Prop41ColorRGB
 90
        0
102
RTVSPost2010PropOp41
 70
     1
102
RTVSPost2010Prop42
 90
       50
102
RTVSPost2010PropOp42
 70
     1
102
RTVSPost2010Prop43
 90
        3
102
RTVSPost2010PropOp43
 70
     1
102
RTVSPost2010Prop44ColorIndex
 90
        5
102
RTVSPost2010Prop44ColorRGB
 90
      255
102
RTVSPost2010PropOp44
 70
     1
102
RTVSPost2010Prop45
280
     0
102
RTVSPost2010PropOp45
 70
     1
102
RTVSPost2010Prop46
 90
       50
102
RTVSPost2010PropOp46
 70
     1
102
RTVSPost2010Prop47
 90
       50
102
RTVSPost2010PropOp47
 70
     1
102
RTVSPost2010Prop48
 90
       50
102
RTVSPost2010PropOp48
 70
     1
102
RTVSPost2010Prop49
280
     0
102
RTVSPost2010PropOp49
 70
     1
102
RTVSPost2010Prop50
 90
       50
102
RTVSPost2010PropOp50
 70
     1
102
RTVSPost2010Prop51ColorIndex
 90
      256
102
RTVSPost2010Prop51ColorRGB
 90
-16777216
102
RTVSPost2010PropOp51
 70
     0
102
RTVSPost2010Prop52
140
1.0
102
RTVSPost2010PropOp52
 70
     0
102
RTVSPost2010Prop53
 90
        2
102
RTVSPost2010PropOp53
 70
     1
102
RTVSPost2010Prop54
  1
strokes_ogs.tif
102
RTVSPost2010PropOp54
 70
     1
102
RTVSPost2010Prop55
280
     0
102
RTVSPost2010PropOp55
 70
     1
102
RTVSPost2010Prop56
140
1.0
102
RTVSPost2010PropOp56
 70
     1
102
RTVSPost2010Prop57
140
1.0
102
RTVSPost2010PropOp57
 70
     1
  0
XRECORD
  5
47D
102
{ACAD_REACTORS
330
47C
102
}
330
47C
100
AcDbXrecord
280
     1
102
RTVSPost2010Prop28
280
     0
102
RTVSPost2010PropOp28
 70
     1
102
RTVSPost2010Prop29
280
     1
102
RTVSPost2010PropOp29
 70
     1
102
RTVSPost2010Prop30
280
     1
102
RTVSPost2010PropOp30
 70
     1
102
RTVSPost2010Prop31
280
     0
102
RTVSPost2010PropOp31
 70
     1
102
RTVSPost2010Prop32
280
     0
102
RTVSPost2010PropOp32
 70
     1
102
RTVSPost2010Prop33
280
     0
102
RTVSPost2010PropOp33
 70
     1
102
RTVSPost2010Prop34
280
     0
102
RTVSPost2010PropOp34
 70
     1
102
RTVSPost2010Prop35
280
     0
102
RTVSPost2010PropOp35
 70
     1
102
RTVSPost2010Prop36
280
     0
102
RTVSPost2010PropOp36
 70
     1
102
RTVSPost2010Prop37
 90
       50
102
RTVSPost2010PropOp37
 70
     1
102
RTVSPost2010Prop38
140
0.0
102
RTVSPost2010PropOp38
 70
     1
102
RTVSPost2010Prop39
140
1.0
102
RTVSPost2010PropOp39
 70
     1
102
RTVSPost2010Prop40
 90
        0
102
RTVSPost2010PropOp40
 70
     1
102
RTVSPost2010Prop41ColorIndex
 90
       18
102
RTVSPost2010Prop41ColorRGB
 90
        0
102
RTVSPost2010PropOp41
 70
     1
102
RTVSPost2010Prop42
 90
       50
102
RTVSPost2010PropOp42
 70
     1
102
RTVSPost2010Prop43
 90
        3
102
RTVSPost2010PropOp43
 70
     1
102
RTVSPost2010Prop44ColorIndex
 90
        5
102
RTVSPost2010Prop44ColorRGB
 90
      255
102
RTVSPost2010PropOp44
 70
     1
102
RTVSPost2010Prop45
280
     0
102
RTVSPost2010PropOp45
 70
     1
102
RTVSPost2010Prop46
 90
       50
102
RTVSPost2010PropOp46
 70
     1
102
RTVSPost2010Prop47
 90
       50
102
RTVSPost2010PropOp47
 70
     1
102
RTVSPost2010Prop48
 90
       50
102
RTVSPost2010PropOp48
 70
     1
102
RTVSPost2010Prop49
280
     0
102
RTVSPost2010PropOp49
 70
     1
102
RTVSPost2010Prop50
 90
       50
102
RTVSPost2010PropOp50
 70
     1
102
RTVSPost2010Prop51ColorIndex
 90
      256
102
RTVSPost2010Prop51ColorRGB
 90
-16777216
102
RTVSPost2010PropOp51
 70
     0
102
RTVSPost2010Prop52
140
1.0
102
RTVSPost2010PropOp52
 70
     0
102
RTVSPost2010Prop53
 90
        2
102
RTVSPost2010PropOp53
 70
     1
102
RTVSPost2010Prop54
  1
strokes_ogs.tif
102
RTVSPost2010PropOp54
 70
     1
102
RTVSPost2010Prop55
280
     0
102
RTVSPost2010PropOp55
 70
     1
102
RTVSPost2010Prop56
140
1.0
102
RTVSPost2010PropOp56
 70
     1
102
RTVSPost2010Prop57
140
1.0
102
RTVSPost2010PropOp57
 70
     1
  0
ENDSEC
  0
EOF
